×

¿Problemas para descargar con Mozilla, EDGE? Deshabilita la opción "Abrir vinculos en una pestaña nueva" tal como lo muestra ésta imagen.

Infinite (2021) WEB-DL 4K UHD HDR Latino

379 vistas

Información de Infinite (2021) WEB-DL 4K UHD HDR Latino

Datos de la película

  • Calidad: WEBDL
  • Audio: Español Latino AC3 5.1 WEB-DL - Ingles AC3 5.1 WEB-DL
  • Subtitulos: Español Latino SRT- FORZADOS SRT
  • Resolución: 3840x2160p
  • Formato: MKV
  • Codec: HEVC
  • Encoder: Melkor
  • Mediainfo: Clic para Mostrar Datos Ver
  • Infinite (2021) WEB UHD HDR Latino.mkv
    Format                      : Matroska
    Format version              : Version 4
    File size                   : 11.4 GiB
    Duration                    : 1 h 46 min
    Overall bit rate            : 15.3 Mb/s
    Movie name                  : Infinite (2021) CinemaniaHDD.Net
    Encoded date                : UTC 2021-08-11 04:00:03
    Writing application         : mkvmerge v56.1.0 ('My Friend') 64-bit
    Writing library             : libebml v1.4.2 + libmatroska v1.6.4
    Attachments                 : CINEMANIAHD.png

    Video
    ID                          : 1
    Format                      : HEVC
    Format/Info                 : High Efficiency Video Coding
    Format profile              : Main 10@L5@High
    HDR format                  : SMPTE ST 2094 App 4, Version 1, HDR10+ Profile B compatible
    Codec ID                    : V_MPEGH/ISO/HEVC
    Duration                    : 1 h 46 min
    Bit rate                    : 14.3 Mb/s
    Width                       : 3 840 pixels
    Height                      : 2 160 pixels
    Display aspect ratio        : 16:9
    Frame rate mode             : Constant
    Frame rate                  : 23.976 (24000/1001) FPS
    Color space                 : YUV
    Chroma subsampling          : 4:2:0 (Type 2)
    Bit depth                   : 10 bits
    Bits/(Pixel*Frame)          : 0.072
    Stream size                 : 10.6 GiB (93%)
    Title                       : Web 2160p HDR [CinemaniaHDD]
    Default                     : Yes
    Forced                      : No
    Color range                 : Full
    Color primaries             : BT.2020
    Transfer characteristics    : PQ
    Matrix coefficients         : BT.2020 non-constant
    Mastering display color pri : Display P3
    Mastering display luminance : min: 0.0001 cd/m2, max: 1000 cd/m2

    Audio #1
    ID                          : 2
    Format                      : AC-3
    Format/Info                 : Audio Coding 3
    Commercial name             : Dolby Digital
    Codec ID                    : A_AC3
    Duration                    : 1 h 46 min
    Bit rate mode               : Constant
    Bit rate                    : 384 kb/s
    Channel(s)                  : 6 channels
    Channel layout              : L R C LFE Ls Rs
    Sampling rate               : 48.0 kHz
    Frame rate                  : 31.250 FPS (1536 SPF)
    Compression mode            : Lossy
    Stream size                 : 292 MiB (3%)
    Title                       : Español Latino [CinemaniaHDD]
    Language                    : Spanish
    Service kind                : Complete Main
    Default                     : Yes
    Forced                      : No

    Audio #2
    ID                          : 3
    Format                      : E-AC-3
    Format/Info                 : Enhanced AC-3
    Commercial name             : Dolby Digital Plus
    Codec ID                    : A_EAC3
    Duration                    : 1 h 46 min
    Bit rate mode               : Constant
    Bit rate                    : 640 kb/s
    Channel(s)                  : 6 channels
    Channel layout              : L R C LFE Ls Rs
    Sampling rate               : 48.0 kHz
    Frame rate                  : 31.250 FPS (1536 SPF)
    Compression mode            : Lossy
    Stream size                 : 487 MiB (4%)
    Title                       : Ingles [CinemaniaHDD]
    Language                    : English
    Service kind                : Complete Main
    Default                     : No
    Forced                      : No

    Text #1
    ID                          : 4
    Format                      : UTF-8
    Codec ID                    : S_TEXT/UTF8
    Codec ID/Info               : UTF-8 Plain Text
    Duration                    : 1 h 34 min
    Bit rate                    : 0 b/s
    Count of elements           : 7
    Stream size                 : 184 Bytes (0%)
    Title                       : Forzados-SRT [CinemaniaHDD]
    Language                    : Spanish
    Default                     : Yes
    Forced                      : No

    Text #2
    ID                          : 5
    Format                      : UTF-8
    Codec ID                    : S_TEXT/UTF8
    Codec ID/Info               : UTF-8 Plain Text
    Duration                    : 1 h 36 min
    Bit rate                    : 48 b/s
    Count of elements           : 977
    Stream size                 : 34.2 KiB (0%)
    Title                       : Español-SRT [CinemaniaHDD]
    Language                    : Spanish
    Default                     : No
    Forced                      : No

    Text #3
    ID                          : 6
    Format                      : UTF-8
    Codec ID                    : S_TEXT/UTF8
    Codec ID/Info               : UTF-8 Plain Text
    Duration                    : 1 h 36 min
    Bit rate                    : 43 b/s
    Count of elements           : 954
    Stream size                 : 31.0 KiB (0%)
    Title                       : Ingles-SRT [CinemaniaHDD]
    Language                    : English
    Default                     : No
    Forced                      : No

  • Peso: 11.4 GiB

Sinopsis

Descargar Infinite (2021) WEB-DL 4K UHD HDR Latino. Evan McCauley tiene habilidades que nunca aprendió y recuerdos de lugares que nunca ha visitado. Automedicado y al borde de un colapso mental, un grupo secreto que se hace llamar «Infinitos» acuden a su rescate, revelando que sus recuerdos son reales.

Ficha técnica

Video trailer de la película

Enlaces de descarga

Rip de Bluray

Descargar Infinite (2021) WEB-DL 4K UHD HDR Latino




Aportes de DPeliculasHDmega la pass es:dpeliculashdmega.org Aportes de CinemaniaHD la pass es:cinemaniahdd.com

Películas relacionadas

  • Un mundo extraño (2022) HD 1080p Latino

    Un mundo extraño (2022) HD 1080p Latino

    2022
    Un mundo extraño (2022) HD 1080p Latino

    1h 42m 2022

    Descargar Un mundo extraño (2022) HD 1080p Latino. Los Clades son una familia conocida en todo el mundo,...

    Director: Thai Bettistea

    Género: Animación

    Actores: Reed Buck

  • Un mundo extraño (2022) REMUX 1080p Latino

    Un mundo extraño (2022) REMUX 1080p Latino

    2022
    Un mundo extraño (2022) REMUX 1080p Latino

    1h 42m 2022

    Descargar Un mundo extraño (2022) REMUX 1080p. Un viaje a una tierra inexplorada y traicionera en la...

    Director: Thai Bettistea

    Género: Animación

    Actores: Reed Buck

  • Lobo Vikingo (2022) NF WEB-DL 1080p Latino

    Lobo Vikingo (2022) NF WEB-DL 1080p Latino

    2022
    Lobo Vikingo (2022) NF WEB-DL 1080p Latino

    1h 38m 2022

    Descargar Lobo Vikingo (2022) NF WEB-DL 1080p Latino. Thale (17) acaba de mudarse con sus padres a un...

    Director: Stig Svendsen

    Género: Netflix

    Actores: Vidar Magnussen

  • Infiesto (2023) NF WEB-DL 1080p Castellano

    Infiesto (2023) NF WEB-DL 1080p Castellano

    2023
    Infiesto (2023) NF WEB-DL 1080p Castellano

    1h 36m 2023

    Descargar Infiesto (2023) NF WEB-DL 1080p Castellano. Mientras el coronavirus trastoca sus vidas, dos...

    Director: Patxi Amezcua

    Género: Crimen

    Actores: Luis Zahera

descargar Infinite (2021) WEB-DL 4K UHD HDR Latino WEBDL 1080p gratis, Infinite (2021) WEB-DL 4K UHD HDR Latino WEBDL mega 1 link, Infinite (2021) WEB-DL 4K UHD HDR Latino WEBDL pelicula completa, descargar Infinite (2021) WEB-DL 4K UHD HDR Latino WEBDL gratis en mega.

Infinite (2021) WEB-DL 4K UHD HDR Latino pelicula full hd, Infinite (2021) WEB-DL 4K UHD HDR Latino mega latino, Infinite (2021) WEB-DL 4K UHD HDR Latino 4k latino, Infinite (2021) WEB-DL 4K UHD HDR Latino pelicula completa, Infinite (2021) WEB-DL 4K UHD HDR Latino descargar gratis, descargar Infinite (2021) WEB-DL 4K UHD HDR Latino pelicula latino, Infinite (2021) WEB-DL 4K UHD HDR Latino 1 link mega, Infinite (2021) WEB-DL 4K UHD HDR Latino 1 link google drive, Infinite (2021) WEB-DL 4K UHD HDR Latino hd 1080p latino.
Comentarios 0