×

¿Problemas para descargar con Mozilla, EDGE? Deshabilita la opción "Abrir vinculos en una pestaña nueva" tal como lo muestra ésta imagen.

El Día de la Independencia 2: Contraataque (2016) 1080p Latino

728 vistas

Información de El Día de la Independencia 2: Contraataque (2016) 1080p Latino

Datos de la película

  • Calidad: 1080p
  • Audio: Español Latino AC3 5.1 BLURAY - Ingles AC3 5.1 BLURAY
  • Subtitulos: Español Latino SRT - Ingles SRT
  • Resolución: 1920x804p
  • Formato: MKV
  • Codec: H.264
  • Encoder: CinefiloCool
  • Mediainfo: Clic para Mostrar Datos Ver
  • Dia De La Independencia. Contraataque (2016) 1080p Latino-CMHDD.mkv
    Format                      : Matroska
    Format version              : Version 4
    File size                   : 5.06 GiB
    Duration                    : 1 h 59 min
    Overall bit rate mode       : Variable
    Overall bit rate            : 6 050 kb/s
    Movie name                  : Independence. Day Resurgence (2016) CinemaniaHDD.Net
    Encoded date                : UTC 2022-03-18 04:51:55
    Writing application         : mkvmerge v56.1.0 ('My Friend') 64-bit
    Writing library             : libebml v1.4.2 + libmatroska v1.6.4
    Attachments                 : CINEMANIAHD.png

    Video
    ID                          : 1
    Format                      : AVC
    Format/Info                 : Advanced Video Codec
    Format profile              : High@L4.1
    Format settings             : CABAC / 5 Ref Frames
    Format settings, CABAC      : Yes
    Format settings, Reference  : 5 frames
    Codec ID                    : V_MPEG4/ISO/AVC
    Duration                    : 1 h 59 min
    Bit rate mode               : Variable
    Bit rate                    : 5 152 kb/s
    Width                       : 1 920 pixels
    Height                      : 804 pixels
    Display aspect ratio        : 2.40:1
    Frame rate mode             : Constant
    Frame rate                  : 23.976 (24000/1001) FPS
    Color space                 : YUV
    Chroma subsampling          : 4:2:0
    Bit depth                   : 8 bits
    Scan type                   : Progressive
    Bits/(Pixel*Frame)          : 0.139
    Stream size                 : 4.31 GiB (85%)
    Title                       : HD1080p [CinemaniaHDD]
    Writing library             : x264 core 163 r3059 b684ebe0
    Encoding settings           : cabac=1 / ref=5 / deblock=1:-1:-1 / analyse=0x3:0x133 / me=umh / subme=9 / psy=1 / psy_rd=1.00:0.15 / mixed_ref=1 / me_range=16 / chroma_me=1 / trellis=2 / 8x8dct=1 / cqm=0 / deadzone=21,11 / fast_pskip=1 / chroma_qp_offset=-3 / threads=24 / lookahead_threads=2 / sliced_threads=0 / nr=0 / decimate=1 / interlaced=0 / bluray_compat=0 / constrained_intra=0 / bframes=3 / b_pyramid=2 / b_adapt=2 / b_bias=0 / direct=3 / weightb=1 / open_gop=0 / weightp=2 / keyint=240 / keyint_min=24 / scenecut=40 / intra_refresh=0 / rc_lookahead=60 / rc=crf / mbtree=1 / crf=21.0 / qcomp=0.60 / qpmin=0 / qpmax=69 / qpstep=4 / vbv_maxrate=62500 / vbv_bufsize=78125 / crf_max=0.0 / nal_hrd=vbr / filler=0 / ip_ratio=1.40 / aq=1:1.00
    Default                     : Yes
    Forced                      : Yes
    Color range                 : Limited
    Color primaries             : BT.709
    Transfer characteristics    : BT.709
    Matrix coefficients         : BT.709

    Audio #1
    ID                          : 2
    Format                      : AC-3
    Format/Info                 : Audio Coding 3
    Commercial name             : Dolby Digital
    Codec ID                    : A_AC3
    Duration                    : 1 h 59 min
    Bit rate mode               : Constant
    Bit rate                    : 448 kb/s
    Channel(s)                  : 6 channels
    Channel layout              : L R C LFE Ls Rs
    Sampling rate               : 48.0 kHz
    Frame rate                  : 31.250 FPS (1536 SPF)
    Compression mode            : Lossy
    Stream size                 : 384 MiB (7%)
    Title                       : Español Latino [CinemaniaHDD]
    Language                    : Spanish
    Service kind                : Complete Main
    Default                     : Yes
    Forced                      : Yes

    Audio #2
    ID                          : 3
    Format                      : AC-3
    Format/Info                 : Audio Coding 3
    Commercial name             : Dolby Digital
    Codec ID                    : A_AC3
    Duration                    : 1 h 59 min
    Bit rate mode               : Constant
    Bit rate                    : 448 kb/s
    Channel(s)                  : 6 channels
    Channel layout              : L R C LFE Ls Rs
    Sampling rate               : 48.0 kHz
    Frame rate                  : 31.250 FPS (1536 SPF)
    Compression mode            : Lossy
    Delay relative to video     : -5 ms
    Stream size                 : 384 MiB (7%)
    Title                       : Ingles [CinemaniaHDD]
    Language                    : English
    Service kind                : Complete Main
    Default                     : No
    Forced                      : No

    Text #1
    ID                          : 4
    Format                      : UTF-8
    Codec ID                    : S_TEXT/UTF8
    Codec ID/Info               : UTF-8 Plain Text
    Duration                    : 25 min 12 s
    Bit rate                    : 0 b/s
    Count of elements           : 5
    Stream size                 : 138 Bytes (0%)
    Title                       : Forzados-SRT [CinemaniaHDD]
    Language                    : Spanish
    Default                     : Yes
    Forced                      : Yes

    Text #2
    ID                          : 5
    Format                      : UTF-8
    Codec ID                    : S_TEXT/UTF8
    Codec ID/Info               : UTF-8 Plain Text
    Duration                    : 1 h 58 min
    Bit rate                    : 59 b/s
    Count of elements           : 1596
    Stream size                 : 51.6 KiB (0%)
    Title                       : Español-SRT [CinemaniaHDD]
    Language                    : Spanish
    Default                     : No
    Forced                      : No

    Text #3
    ID                          : 6
    Format                      : UTF-8
    Codec ID                    : S_TEXT/UTF8
    Codec ID/Info               : UTF-8 Plain Text
    Duration                    : 1 h 49 min
    Bit rate                    : 63 b/s
    Count of elements           : 1890
    Stream size                 : 50.7 KiB (0%)
    Title                       : Ingles-SRT [CinemaniaHDD]
    Language                    : English
    Default                     : No
    Forced                      : No

    Menu
    00:00:00.000                : :Chapter 1
    00:05:37.379                : :Chapter 2
    00:09:15.513                : :Chapter 3
    00:14:06.763                : :Chapter 4
    00:19:40.513                : :Chapter 5
    00:22:59.044                : :Chapter 6
    00:27:10.295                : :Chapter 7
    00:31:37.687                : :Chapter 8
    00:39:12.016                : :Chapter 9
    00:43:41.160                : :Chapter 10
    00:47:46.655                : :Chapter 11
    00:52:32.232                : :Chapter 12
    00:59:10.297                : :Chapter 13
    01:02:00.175                : :Chapter 14
    01:07:12.111                : :Chapter 15
    01:09:54.857                : :Chapter 16
    01:13:11.762                : :Chapter 17
    01:18:27.494                : :Chapter 18
    01:22:45.544                : :Chapter 19
    01:27:51.850                : :Chapter 20
    01:32:36.760                : :Chapter 21
    01:39:38.181                : :Chapter 22
    01:47:20.184                : :Chapter 23
    01:50:36.755                : :Chapter 24

  • Peso: 5.06 GiB

Sinopsis

Descargar El Día de la Independencia 2: Contraataque (2016) 1080p Latino. Utilizando la tecnología que los extraterrestres tenían 20 años antes, las naciones de la Tierra, que temen el regreso de los invasores, han colaborado en la elaboración de un gigantesco programa de defensa para proteger el planeta. Pero no es seguro que ese programa sirva para hacer frente a los avanzados e inauditos recursos de los atacantes. Quizá sólo la inventiva de unos pocos valientes pueda evitar la destrucción del mundo, que se encuentra de nuevo al borde de la extinción. Secuela del gran éxito de 1996 «Independence Day».

Ficha técnica

Video trailer de la película

Enlaces de descarga

Rip de Bluray

Descargar El Día de la Independencia 2: Contraataque (2016) 1080p Latino




Aportes de DPeliculasHDmega la pass es:dpeliculashdmega.org Aportes de CinemaniaHD la pass es:cinemaniahdd.com Aportes recientes:cinemaniahdd.net

Películas relacionadas

descargar El Día de la Independencia 2: Contraataque (2016) 1080p Latino 1080p 1080p gratis, El Día de la Independencia 2: Contraataque (2016) 1080p Latino 1080p mega 1 link, El Día de la Independencia 2: Contraataque (2016) 1080p Latino 1080p pelicula completa, descargar El Día de la Independencia 2: Contraataque (2016) 1080p Latino 1080p gratis en mega.

El Día de la Independencia 2: Contraataque (2016) 1080p Latino pelicula full hd, El Día de la Independencia 2: Contraataque (2016) 1080p Latino mega latino, El Día de la Independencia 2: Contraataque (2016) 1080p Latino 4k latino, El Día de la Independencia 2: Contraataque (2016) 1080p Latino pelicula completa, El Día de la Independencia 2: Contraataque (2016) 1080p Latino descargar gratis, descargar El Día de la Independencia 2: Contraataque (2016) 1080p Latino pelicula latino, El Día de la Independencia 2: Contraataque (2016) 1080p Latino 1 link mega, El Día de la Independencia 2: Contraataque (2016) 1080p Latino 1 link google drive, El Día de la Independencia 2: Contraataque (2016) 1080p Latino hd 1080p latino.
Comentarios 0