Legend of the Guardians- The Owls of Ga’Hoole (2010) REMUX 1080p Latino – CMHDD

37 vistas
1 estrella2 estrellas3 estrellas4 estrellas5 estrellas (1 votos, promedio: 5,00 de 5)
Cargando...

Información de Legend of the Guardians- The Owls of Ga’Hoole (2010) REMUX 1080p Latino – CMHDD

Datos de la película

  • Calidad: Full 1080p
  • Audio: Español Latino AC3 5.1 BLURAY - Ingles DTS 5.1 BLURAY
  • Subtitulos: Español Latino SRT
  • Resolución: 1920x1080p
  • Formato: MKV
  • Codec: H.264
  • Encoder: Dracarys
  • Mediainfo: Clic para Mostrar Datos Ver
  • Format                      : Matroska
    Format version              : Version 4
    File size                   : 19.8 GiB
    Duration                    : 1 h 36 min
    Overall bit rate mode       : Variable
    Overall bit rate            : 29.3 Mb/s
    Encoded date                : UTC 2021-05-12 22:55:11
    Writing application         : mkvmerge v56.1.0 ('My Friend') 64-bit
    Writing library             : libebml v1.4.2 + libmatroska v1.6.4

    Video
    ID                          : 1
    Format                      : AVC
    Format/Info                 : Advanced Video Codec
    Format profile              : High@L4.1
    Format settings             : CABAC / 3 Ref Frames
    Format settings, CABAC      : Yes
    Format settings, Reference  : 3 frames
    Codec ID                    : V_MPEG4/ISO/AVC
    Duration                    : 1 h 36 min
    Bit rate mode               : Variable
    Bit rate                    : 25.0 Mb/s
    Maximum bit rate            : 40.0 Mb/s
    Width                       : 1 920 pixels
    Height                      : 1 080 pixels
    Display aspect ratio        : 16:9
    Frame rate mode             : Constant
    Frame rate                  : 23.976 (24000/1001) FPS
    Standard                    : NTSC
    Color space                 : YUV
    Chroma subsampling          : 4:2:0
    Bit depth                   : 8 bits
    Scan type                   : Progressive
    Bits/(Pixel*Frame)          : 0.502
    Stream size                 : 16.9 GiB (85%)
    Default                     : Yes
    Forced                      : No
    Color range                 : Limited

    Audio #1
    ID                          : 2
    Format                      : AC-3
    Format/Info                 : Audio Coding 3
    Commercial name             : Dolby Digital
    Codec ID                    : A_AC3
    Duration                    : 1 h 36 min
    Bit rate mode               : Constant
    Bit rate                    : 448 kb/s
    Channel(s)                  : 6 channels
    Channel layout              : L R C LFE Ls Rs
    Sampling rate               : 48.0 kHz
    Frame rate                  : 31.250 FPS (1536 SPF)
    Compression mode            : Lossy
    Stream size                 : 310 MiB (2%)
    Language                    : Spanish
    Service kind                : Complete Main
    Default                     : Yes
    Forced                      : No

    Audio #2
    ID                          : 3
    Format                      : DTS XLL
    Format/Info                 : Digital Theater Systems
    Commercial name             : DTS-HD Master Audio
    Codec ID                    : A_DTS
    Duration                    : 1 h 36 min
    Bit rate mode               : Variable
    Bit rate                    : 3 904 kb/s
    Channel(s)                  : 6 channels
    Channel layout              : C L R Ls Rs LFE
    Sampling rate               : 48.0 kHz
    Frame rate                  : 93.750 FPS (512 SPF)
    Bit depth                   : 24 bits
    Compression mode            : Lossless
    Stream size                 : 2.64 GiB (13%)
    Language                    : English
    Default                     : No
    Forced                      : No

    Text
    ID                          : 4
    Format                      : UTF-8
    Codec ID                    : S_TEXT/UTF8
    Codec ID/Info               : UTF-8 Plain Text
    Duration                    : 1 h 26 min
    Bit rate                    : 58 b/s
    Count of elements           : 1174
    Stream size                 : 37.0 KiB (0%)
    Language                    : Spanish
    Default                     : No
    Forced                      : No

  • Peso: 19.8 GiB

Sinopsis

Soren es un joven búho que tendrá que luchar heroicamente para salvar a su pueblo de las fuerzas del Mal. Vive en el bosque Tyto, donde siempre ha reinado la paz entre las lechuzas. En su lucha contra el Mal, emprende un largo y angustioso viaje para buscar el Gran Árbol Ga’Hoole. Cuando lo encuentra, él y sus amigos tendrán que someterse a pruebas y afrontar desafíos inimaginables. Si son capaces de aprender de sus jefes y unos de otros, pronto se convertirán en verdaderas lechuzas de Ga’Hoole: honradas y valientes, sabias y sinceras.

Ficha técnica

  • Titulo original: Legend of the Guardians: The Owls of Ga'Hoole
  • Fecha de lanzamiento: 10-07-2010 (Australia, United States of America)
  • Director: Zack Snyder
  • Género: Animación, Aventura, Familia, Fantasía
  • Puntuación: 5.0 1 votos
  • Duración:
    1h 30m

Video trailer de la película

Enlaces de descarga

Rip de Bluray

Descargar Legend of the Guardians- The Owls of Ga’Hoole (2010) REMUX 1080p Latino – CMHDD


Aportes de DPeliculasHDmega la pass es:dpeliculashdmega.org Aportes de CinemaniaHD la pass es:cinemaniahdd.com
Guardado en : Animación , Aventura , Familia , Fantasía

Películas relacionadas

Legend of the Guardians- The Owls of Ga’Hoole (2010) REMUX 1080p Latino – CMHDD pelicula full hd, Legend of the Guardians- The Owls of Ga’Hoole (2010) REMUX 1080p Latino – CMHDD mega latino, Legend of the Guardians- The Owls of Ga’Hoole (2010) REMUX 1080p Latino – CMHDD 4k latino, Legend of the Guardians- The Owls of Ga’Hoole (2010) REMUX 1080p Latino – CMHDD pelicula completa, Legend of the Guardians- The Owls of Ga’Hoole (2010) REMUX 1080p Latino – CMHDD descargar gratis, descargar Legend of the Guardians- The Owls of Ga’Hoole (2010) REMUX 1080p Latino – CMHDD pelicula latino, Legend of the Guardians- The Owls of Ga’Hoole (2010) REMUX 1080p Latino – CMHDD 1 link mega, Legend of the Guardians- The Owls of Ga’Hoole (2010) REMUX 1080p Latino – CMHDD 1 link google drive, Legend of the Guardians- The Owls of Ga’Hoole (2010) REMUX 1080p Latino – CMHDD hd 1080p latino.