Grey’s Anatomy (2005–06) Temporada 2 [NF] WEB-DL 1080p Latino

307 vistas
1 estrella2 estrellas3 estrellas4 estrellas5 estrellas (Ninguna valoración todavía)
Cargando…

Información de Grey’s Anatomy (2005–06) Temporada 2 [NF] WEB-DL 1080p Latino

Datos de la película

  • Calidad: WEBDL
  • Audio: Se especifica abajo de la Sinopsis
  • Subtitulos: Español Latino SRT
  • Resolución: 1920x1080p
  • Formato: MKV
  • Codec: H.264
  • Encoder: Dracarys
  • Mediainfo: Clic para Mostrar Datos Ver
  • Format                      : Matroska
    Format version              : Version 4
    File size                   : 1.90 GiB
    Duration                    : 43 min 7 s
    Overall bit rate mode       : Variable
    Overall bit rate            : 6 316 kb/s
    Encoded date                : UTC 2019-02-17 06:59:50 / UTC 2015-12-11 23:16:41
    Writing application         : mkvmerge v11.0.0 ('Alive') 64bit
    Writing library             : libebml v1.3.4 + libmatroska v1.4.5 / Lavf58.0.0

    Video
    ID                          : 1
    Format                      : AVC
    Format/Info                 : Advanced Video Codec
    Format profile              : [email protected]
    Format settings             : CABAC / 4 Ref Frames
    Format settings, CABAC      : Yes
    Format settings, ReFrames   : 4 frames
    Codec ID                    : V_MPEG4/ISO/AVC
    Duration                    : 43 min 7 s
    Bit rate mode               : Variable
    Bit rate                    : 5 678 kb/s
    Maximum bit rate            : 20.0 Mb/s
    Width                       : 1 920 pixels
    Height                      : 1 080 pixels
    Display aspect ratio        : 16:9
    Frame rate mode             : Constant
    Frame rate                  : 23.976 (24000/1001) FPS
    Color space                 : YUV
    Chroma subsampling          : 4:2:0
    Bit depth                   : 8 bits
    Scan type                   : Progressive
    Bits/(Pixel*Frame)          : 0.114
    Stream size                 : 1.71 GiB (90%)
    Writing library             : x264 core 148
    Encoding settings           : cabac=1 / ref=4 / deblock=1:0:0 / analyse=0x3:0x111 / me=umh / subme=10 / psy=1 / psy_rd=1.00:0.00 / mixed_ref=1 / me_range=120 / chroma_me=1 / trellis=2 / 8x8dct=1 / cqm=0 / deadzone=21,11 / fast_pskip=1 / chroma_qp_offset=-2 / threads=6 / lookahead_threads=1 / sliced_threads=0 / nr=0 / decimate=1 / interlaced=0 / bluray_compat=0 / stitchable=1 / constrained_intra=0 / bframes=16 / b_pyramid=2 / b_adapt=2 / b_bias=0 / direct=3 / weightb=1 / open_gop=0 / weightp=2 / keyint=240 / keyint_min=121 / scenecut=0 / intra_refresh=0 / rc_lookahead=240 / rc=crf / mbtree=1 / crf=20.0 / qcomp=0.50 / qpmin=6 / qpmax=51 / qpstep=4 / vbv_maxrate=20000 / vbv_bufsize=25000 / crf_max=0.0 / nal_hrd=vbr / filler=0 / ip_ratio=1.40 / aq=1:0.80
    Default                     : Yes
    Forced                      : No
    Statistics Tags Issue       : mkvmerge v11.0.0 ('Alive') 64bit 2019-02-17 06:59:50 / mkvmerge v11.0.0 ('Alive') 64bit 2019-02-17 06:59:50 / UTC 2015-12-11 23:16:41
    FromStats_BitRate           : 5802686
    FromStats_Duration          : 00:43:06.668000000
    FromStats_FrameCount        : 62018
    FromStats_StreamSize        : 1876203051

    Audio #1
    ID                          : 2
    Format                      : E-AC-3
    Format/Info                 : Enhanced AC-3
    Commercial name             : Dolby Digital Plus
    Codec ID                    : A_EAC3
    Duration                    : 43 min 7 s
    Bit rate mode               : Constant
    Bit rate                    : 128 kb/s
    Channel(s)                  : 2 channels
    Channel layout              : L R
    Sampling rate               : 48.0 kHz
    Frame rate                  : 31.250 FPS (1536 SPF)
    Compression mode            : Lossy
    Stream size                 : 39.5 MiB (2%)
    Language                    : Spanish
    Service kind                : Complete Main
    Default                     : Yes
    Forced                      : No
    Encoded date                : UTC 2016-05-12 16:52:30
    Statistics Tags Issue       : mkvmerge v11.0.0 ('Alive') 64bit 2019-02-17 06:59:50 / mkvmerge v11.0.0 ('Alive') 64bit 2019-02-17 06:59:50 / UTC 2015-12-11 23:16:41
    FromStats_BitRate           : 128000
    FromStats_Duration          : 00:43:06.784000000
    FromStats_FrameCount        : 80837
    FromStats_StreamSize        : 41388544

    Audio #2
    ID                          : 3
    Format                      : AC-3
    Format/Info                 : Audio Coding 3
    Commercial name             : Dolby Digital
    Codec ID                    : A_AC3
    Duration                    : 43 min 7 s
    Bit rate mode               : Constant
    Bit rate                    : 384 kb/s
    Channel(s)                  : 6 channels
    Channel layout              : L R C LFE Ls Rs
    Sampling rate               : 48.0 kHz
    Frame rate                  : 31.250 FPS (1536 SPF)
    Bit depth                   : 16 bits
    Compression mode            : Lossy
    Stream size                 : 118 MiB (6%)
    Service kind                : Complete Main
    Default                     : No
    Forced                      : No
    Encoded date                : UTC 2015-12-11 23:16:41
    Statistics Tags Issue       : mkvmerge v11.0.0 ('Alive') 64bit 2019-02-17 06:59:50 / mkvmerge v11.0.0 ('Alive') 64bit 2019-02-17 06:59:50 / UTC 2015-12-11 23:16:41
    FromStats_BitRate           : 384000
    FromStats_Duration          : 00:43:07.040000000
    FromStats_FrameCount        : 80845
    FromStats_StreamSize        : 124177920

    Text
    ID                          : 4
    Format                      : UTF-8
    Codec ID                    : S_TEXT/UTF8
    Codec ID/Info               : UTF-8 Plain Text
    Title                       : Spanish
    Language                    : Spanish
    Default                     : No
    Forced                      : No
    Statistics Tags Issue       : mkvmerge v11.0.0 ('Alive') 64bit 2019-02-17 06:59:50 / mkvmerge v11.0.0 ('Alive') 64bit 2019-02-17 06:59:50 / UTC 2015-12-11 23:16:41
    FromStats_BitRate           : 84
    FromStats_Duration          : 00:42:07.459000000
    FromStats_FrameCount        : 645
    FromStats_StreamSize        : 26593

  • Peso: 1.90 GiB X capitulo Aprox

Sinopsis

La vida de Meredith Grey no es nada fácil. Intenta tomar las riendas de su vida, aunque su trabajo sea de esos que te hacen la vida imposible. Meredith es una cirujana interna de primer año en el Hospital Grace de Seattle, el programa de prácticas más duro de la Facultad de Medicina de Harvard. Y ella lo va a comprobar. Pero no estará sola. Un elenco de compañeros de promoción tendrán que superar la misma prueba. Ahora están en el mundo real, son doctores del hospital. Y en un mundo donde la experiencia en el trabajo puede ser un factor de vida o muerte, todos ellos tendrán que lidiar con los altibajos de sus vidas personales.

 

 


Latino: E-AC3 2.0  –  Ingles: AC3 5.1

Ficha técnica

  • Titulo original: Grey's Anatomy
  • Fecha de lanzamiento: --(2005–06) (US)
  • Director: Shonda Rhimes
  • Género: Drama, Series, Suspense
  • Puntuación: 0.0 0 votos
  • Duración:
    0h 43m

Video trailer de la película

Enlaces de descarga

Rip de Bluray

Descargar Grey’s Anatomy (2005–06) Temporada 2 [NF] WEB-DL 1080p Latino




Aportes de DPeliculasHDmega la pass es:dpeliculashdmega.org Aportes de CinemaniaHD la pass es:cinemaniahdd.com
Guardado en : Drama , Series , Suspense

Películas relacionadas

  • Las Dos Reinas (2018) 4K UHD HDR Latino

    2018
    Las Dos Reinas (2018) 4K UHD HDR Latino

    0.0 2h 5m 2018

    Descargar Las Dos Reinas (2018) 4K UHD HDR Latino, Mega, Google Drive. Dos mujeres rivales en el poder...

    Director: Josie Rourke

    Género: 4K HDR

    Actores: Thom Petty

  • The Mule (2018) 1080p Latino

    2018
    The Mule (2018) 1080p Latino

    0.0 1h 56m 2018

    A Earl Stone (Eastwood), un octogenario que está en quiebra, solo, y que se enfrenta a la ejecución...

    Director: Clint Eastwood

    Género: Crimen

    Actores: Victor Rasuk

  • The mule (2018) WEB-DL 1080p Latino

    2018
    The mule (2018) WEB-DL 1080p Latino

    0.0 1h 56m 2018

    A Earl Stone (Eastwood), un octogenario que está en quiebra, solo, y que se enfrenta a la ejecución...

    Director: Clint Eastwood

    Género: Crimen

    Actores: Victor Rasuk

  • Robin Hood (2018) 4K UHD HDR Latino

    2018
    Robin Hood (2018) 4K UHD HDR Latino

    0.0 1h 56m 2018

    Descargar Robin Hood (2018) 4K UHD HDR Latino, Mega, Google Drive. Cuando el joven Robin Hood (Taron...

    Director: Otto Bathurst

    Género: 4K HDR

    Actores: Yasen Atour

Comentarios 0