×

¿Problemas para descargar con Mozilla, EDGE? Deshabilita la opción "Abrir vinculos en una pestaña nueva" tal como lo muestra ésta imagen.

James Bond: Goldeneye, El Regreso Del Agente 007 (1995) Full HD 1080p Latino

1.606 vistas

Información de James Bond: Goldeneye, El Regreso Del Agente 007 (1995) Full HD 1080p Latino

Datos de la película

  • Calidad: Full 1080p
  • Audio: Español Latino AC3 5.1 BLURAY - Ingles DTS 5.1 BLURAY
  • Subtitulos: Español Latino PGS - Ingles PGS
  • Resolución: 1920x1080p
  • Formato: MKV
  • Codec: H.264
  • Encoder: Dracarys
  • Mediainfo: Clic para Mostrar Datos Ver
  • GoldenEye El Regreso Del Agente 007 (1995) Full HD 1080p Latino-CMHDD.mkv
    Format                      : Matroska
    Format version              : Version 4
    File size                   : 5.78 GiB
    Duration                    : 2 h 10 min
    Overall bit rate            : 6 369 kb/s
    Movie name                  : GoldenEye (1995) CinemaniaHDD.Net
    Encoded date                : UTC 2020-06-12 04:29:15
    Writing application         : mkvmerge v46.0.0 ('No Deeper Escape') 64-bit
    Writing library             : libebml v1.3.10 + libmatroska v1.5.2
    Attachments                 : CINEMANIAHD.png

    Video
    ID                          : 1
    Format                      : AVC
    Format/Info                 : Advanced Video Codec
    Format profile              : High@L4.1
    Format settings             : CABAC / 4 Ref Frames
    Format settings, CABAC      : Yes
    Format settings, Reference  : 4 frames
    Codec ID                    : V_MPEG4/ISO/AVC
    Duration                    : 2 h 10 min
    Bit rate                    : 4 397 kb/s
    Width                       : 1 920 pixels
    Height                      : 1 080 pixels
    Display aspect ratio        : 16:9
    Frame rate mode             : Constant
    Frame rate                  : 23.976 (24000/1001) FPS
    Color space                 : YUV
    Chroma subsampling          : 4:2:0
    Bit depth                   : 8 bits
    Scan type                   : Progressive
    Bits/(Pixel*Frame)          : 0.088
    Stream size                 : 3.99 GiB (69%)
    Title                       : Full HD1080p [CinemaniaHDD]
    Writing library             : x264 core 148 r2708 86b7198
    Encoding settings           : cabac=1 / ref=4 / deblock=1:0:0 / analyse=0x3:0x133 / me=esa / subme=10 / psy=1 / psy_rd=1.00:0.00 / mixed_ref=1 / me_range=24 / chroma_me=1 / trellis=2 / 8x8dct=1 / cqm=0 / deadzone=21,11 / fast_pskip=1 / chroma_qp_offset=-2 / threads=34 / lookahead_threads=5 / sliced_threads=0 / nr=0 / decimate=1 / interlaced=0 / bluray_compat=0 / constrained_intra=0 / bframes=8 / b_pyramid=2 / b_adapt=2 / b_bias=0 / direct=3 / weightb=1 / open_gop=0 / weightp=2 / keyint=240 / keyint_min=24 / scenecut=40 / intra_refresh=0 / rc_lookahead=60 / rc=crf / mbtree=1 / crf=20.0 / qcomp=0.60 / qpmin=0 / qpmax=69 / qpstep=4 / vbv_maxrate=62500 / vbv_bufsize=78125 / crf_max=0.0 / nal_hrd=none / filler=0 / ip_ratio=1.40 / aq=1:1.00
    Language                    : English
    Default                     : Yes
    Forced                      : No
    Color range                 : Limited
    Color primaries             : BT.709
    Transfer characteristics    : BT.709
    Matrix coefficients         : BT.709

    Audio #1
    ID                          : 2
    Format                      : AC-3
    Format/Info                 : Audio Coding 3
    Commercial name             : Dolby Digital
    Codec ID                    : A_AC3
    Duration                    : 2 h 10 min
    Bit rate mode               : Constant
    Bit rate                    : 448 kb/s
    Channel(s)                  : 6 channels
    Channel layout              : L R C LFE Ls Rs
    Sampling rate               : 48.0 kHz
    Frame rate                  : 31.250 FPS (1536 SPF)
    Compression mode            : Lossy
    Stream size                 : 417 MiB (7%)
    Title                       : Español Latino [CinemaniaHDD]
    Language                    : Spanish
    Service kind                : Complete Main
    Default                     : Yes
    Forced                      : No

    Audio #2
    ID                          : 3
    Format                      : DTS
    Format/Info                 : Digital Theater Systems
    Codec ID                    : A_DTS
    Duration                    : 2 h 10 min
    Bit rate mode               : Constant
    Bit rate                    : 1 509 kb/s
    Channel(s)                  : 6 channels
    Channel layout              : C L R Ls Rs LFE
    Sampling rate               : 48.0 kHz
    Frame rate                  : 93.750 FPS (512 SPF)
    Bit depth                   : 24 bits
    Compression mode            : Lossy
    Stream size                 : 1.37 GiB (24%)
    Title                       : Ingles [CinemaniaHDD]
    Language                    : English
    Default                     : No
    Forced                      : No

    Text #1
    ID                          : 4
    Format                      : PGS
    Muxing mode                 : zlib
    Codec ID                    : S_HDMV/PGS
    Codec ID/Info               : Picture based subtitle format used on BDs/HD-DVDs
    Duration                    : 2 h 7 min
    Bit rate                    : 502 b/s
    Count of elements           : 48
    Stream size                 : 470 KiB (0%)
    Title                       : Forzados-PGS [CinemaniaHDD]
    Language                    : Spanish
    Default                     : Yes
    Forced                      : No

    Text #2
    ID                          : 5
    Format                      : PGS
    Muxing mode                 : zlib
    Codec ID                    : S_HDMV/PGS
    Codec ID/Info               : Picture based subtitle format used on BDs/HD-DVDs
    Duration                    : 2 h 7 min
    Bit rate                    : 19.1 kb/s
    Count of elements           : 1747
    Stream size                 : 17.4 MiB (0%)
    Title                       : Español-PGS [CinemaniaHDD]
    Language                    : Spanish
    Default                     : No
    Forced                      : No

    Text #3
    ID                          : 6
    Format                      : PGS
    Muxing mode                 : zlib
    Codec ID                    : S_HDMV/PGS
    Codec ID/Info               : Picture based subtitle format used on BDs/HD-DVDs
    Duration                    : 2 h 6 min
    Bit rate                    : 23.6 kb/s
    Count of elements           : 1962
    Stream size                 : 21.4 MiB (0%)
    Title                       : Ingles-PGS [CinemaniaHDD]
    Language                    : English
    Default                     : No
    Forced                      : No

    Text #4
    ID                          : 7
    Format                      : UTF-8
    Codec ID                    : S_TEXT/UTF8
    Codec ID/Info               : UTF-8 Plain Text
    Duration                    : 2 h 7 min
    Bit rate                    : 0 b/s
    Count of elements           : 31
    Stream size                 : 790 Bytes (0%)
    Title                       : Forzados-SRT [CinemaniaHDD]
    Language                    : Spanish
    Default                     : No
    Forced                      : No

    Text #5
    ID                          : 8
    Format                      : UTF-8
    Codec ID                    : S_TEXT/UTF8
    Codec ID/Info               : UTF-8 Plain Text
    Duration                    : 2 h 3 min
    Bit rate                    : 31 b/s
    Count of elements           : 870
    Stream size                 : 28.8 KiB (0%)
    Title                       : Español-SRT [CinemaniaHDD]
    Language                    : Spanish
    Default                     : No
    Forced                      : No

    Menu
    00:00:00.000                : :Chapter 1
    00:10:29.963                : :Chapter 2
    00:13:20.133                : :Chapter 3
    00:17:06.317                : :Chapter 4
    00:24:23.379                : :Chapter 5
    00:27:56.091                : :Chapter 6
    00:31:05.864                : :Chapter 7
    00:36:24.057                : :Chapter 8
    00:38:57.335                : :Chapter 9
    00:43:19.430                : :Chapter 10
    00:48:11.680                : :Chapter 11
    00:50:29.193                : :Chapter 12
    00:53:08.102                : :Chapter 13
    00:56:08.073                : :Chapter 14
    00:57:47.005                : :Chapter 15
    01:03:42.027                : :Chapter 16
    01:06:16.055                : :Chapter 17
    01:11:04.969                : :Chapter 18
    01:13:20.271                : :Chapter 19
    01:17:49.456                : :Chapter 20
    01:19:54.456                : :Chapter 21
    01:25:07.936                : :Chapter 22
    01:30:50.612                : :Chapter 23
    01:34:26.161                : :Chapter 24
    01:40:12.298                : :Chapter 25
    01:44:34.268                : :Chapter 26
    01:47:31.445                : :Chapter 27
    01:50:41.343                : :Chapter 28
    01:56:01.121                : :Chapter 29
    02:00:53.705                : :Chapter 30
    02:04:35.009                : :Chapter 31
    02:06:33.002                : :Chapter 32

  • Peso: 5.78 GiB

Sinopsis

Descargar James Bond: Goldeneye, El Regreso Del Agente 007 (1995) Full HD 1080p Latino. En sus vacaciones, el agente Bond se encuentra con la bella y letal Xenia Onatopp, que intenta hacerse con los planos de un nuevo helicóptero invulnerable a las interferencias. Mientras tanto la programadora del ejército ruso Natalya Siminova es la única superviviente de su equipo a un macabro plan del general Ourumov para hacerse con Goldeneye, un arma espacial ultrasecreta que emite pulsos nucleares que inutilizan cualquier equipo electrónico. Bond formará equipo con Natalya para descubrir a los malhechores tras el robo.

RESUBIDO!

Ficha técnica

Video trailer de la película

Enlaces de descarga

Rip de Bluray

Descargar James Bond: Goldeneye, El Regreso Del Agente 007 (1995) Full HD 1080p Latino




Aportes de DPeliculasHDmega la pass es:dpeliculashdmega.org Aportes de CinemaniaHD la pass es:cinemaniahdd.com

Películas relacionadas

  • DC Liga De Supermascotas (2022) HD 1080p Latino

    DC Liga De Supermascotas (2022) HD 1080p Latino

    2022
    DC Liga De Supermascotas (2022) HD 1080p Latino

    1h 45m 2022

    Descargar DC Liga De Supermascotas (2022) HD 1080p Latino. Krypto el Superperro y Superman son amigos...

    Director: Sam Levine

    Género: Acción

    Actores: Yvette Nicole Brown

  • Invitacion Al Infierno (2022) MA WEB-DL 1080p Latino

    Invitacion Al Infierno (2022) MA WEB-DL 1080p Latino

    2022
    Invitacion Al Infierno (2022) MA WEB-DL 1080p Latino

    1h 45m 2022

    Descargar Invitacion Al Infierno (2022) MA WEB-DL 1080p Latino. Tras la muerte de su madre y quedarse...

    Director: Jessica M. Thompson

    Género: Suspenso

    Actores: Virág Bárány

  • Tremors (1990) REMUX 4K HDR Latino – CMHDD

    Tremors (1990) REMUX 4K HDR Latino – CMHDD

    1990
    Tremors (1990) REMUX 4K HDR Latino – CMHDD

    1h 35m 1990

    En Perfección, un pequeño pueblo al borde del desierto de Nevada, algo parece suceder debajo de la...

    Director: Susan Bierbaum

    Género: Acción

    Actores: Victor Wong

descargar James Bond: Goldeneye, El Regreso Del Agente 007 (1995) Full HD 1080p Latino Full 1080p 1080p gratis, James Bond: Goldeneye, El Regreso Del Agente 007 (1995) Full HD 1080p Latino Full 1080p mega 1 link, James Bond: Goldeneye, El Regreso Del Agente 007 (1995) Full HD 1080p Latino Full 1080p pelicula completa, descargar James Bond: Goldeneye, El Regreso Del Agente 007 (1995) Full HD 1080p Latino Full 1080p gratis en mega.

James Bond: Goldeneye, El Regreso Del Agente 007 (1995) Full HD 1080p Latino pelicula full hd, James Bond: Goldeneye, El Regreso Del Agente 007 (1995) Full HD 1080p Latino mega latino, James Bond: Goldeneye, El Regreso Del Agente 007 (1995) Full HD 1080p Latino 4k latino, James Bond: Goldeneye, El Regreso Del Agente 007 (1995) Full HD 1080p Latino pelicula completa, James Bond: Goldeneye, El Regreso Del Agente 007 (1995) Full HD 1080p Latino descargar gratis, descargar James Bond: Goldeneye, El Regreso Del Agente 007 (1995) Full HD 1080p Latino pelicula latino, James Bond: Goldeneye, El Regreso Del Agente 007 (1995) Full HD 1080p Latino 1 link mega, James Bond: Goldeneye, El Regreso Del Agente 007 (1995) Full HD 1080p Latino 1 link google drive, James Bond: Goldeneye, El Regreso Del Agente 007 (1995) Full HD 1080p Latino hd 1080p latino.
Comentarios 1
  • ocpgaiden - 02 agosto, 2018

    Gracias ahora por las peliculas de 007 {Pierce Brosnan}, saludos