×

¿Problemas para descargar con Mozilla, EDGE? Deshabilita la opción "Abrir vinculos en una pestaña nueva" tal como lo muestra ésta imagen.

Finding Nemo (2003) REMUX 4K HDR Latino – CMHDD

356 vistas

Información de Finding Nemo (2003) REMUX 4K HDR Latino – CMHDD

Datos de la película

  • Calidad:
  • Audio: Español Latino AC3 5.1 BLURAY - Ingles AC3 5.1 BLURAY
  • Subtitulos: Español Latino PGS
  • Resolución: 3840x2160p
  • Formato: MKV
  • Codec: H.264
  • Encoder: Dracarys
  • Mediainfo: Clic para Mostrar Datos Ver
  • Format                      : Matroska
    Format version              : Version 4
    File size                   : 44.0 GiB
    Duration                    : 1 h 40 min
    Overall bit rate mode       : Variable
    Overall bit rate            : 62.5 Mb/s
    Movie name                  : Finding Nemo (2003) REMUX 4K HDR Latino - CMHDD
    Encoded date                : UTC 2022-04-27 06:02:27
    Writing application         : mkvmerge v17.0.0 ('Be Ur Friend') 64-bit
    Writing library             : libebml v1.3.5 + libmatroska v1.4.8

    Video
    ID                          : 1
    Format                      : HEVC
    Format/Info                 : High Efficiency Video Coding
    Format profile              : Main 10@L5.1@High
    HDR format                  : SMPTE ST 2086, HDR10 compatible
    Codec ID                    : V_MPEGH/ISO/HEVC
    Duration                    : 1 h 40 min
    Bit rate                    : 53.3 Mb/s
    Width                       : 3 840 pixels
    Height                      : 2 160 pixels
    Display aspect ratio        : 16:9
    Frame rate mode             : Constant
    Frame rate                  : 23.976 (24000/1001) FPS
    Color space                 : YUV
    Chroma subsampling          : 4:2:0 (Type 2)
    Bit depth                   : 10 bits
    Bits/(Pixel*Frame)          : 0.268
    Stream size                 : 37.6 GiB (85%)
    Writing library             : ATEME Titan File 3.9.0 (4.9.0.0)        
    Default                     : Yes
    Forced                      : No
    Color range                 : Limited
    Color primaries             : BT.2020
    Transfer characteristics    : PQ
    Matrix coefficients         : BT.2020 non-constant
    Mastering display color pri : Display P3
    Mastering display luminance : min: 0.0000 cd/m2, max: 1000 cd/m2

    Audio #1
    ID                          : 2
    Format                      : MLP FBA 16-ch
    Format/Info                 : Meridian Lossless Packing FBA with 16-channel presentation
    Commercial name             : Dolby TrueHD with Dolby Atmos
    Codec ID                    : A_TRUEHD
    Duration                    : 1 h 40 min
    Bit rate mode               : Variable
    Bit rate                    : 6 895 kb/s
    Maximum bit rate            : 9 480 kb/s
    Channel(s)                  : 8 channels
    Channel layout              : L R C LFE Ls Rs Lb Rb
    Sampling rate               : 48.0 kHz
    Frame rate                  : 1 200.000 FPS (40 SPF)
    Compression mode            : Lossless
    Delay relative to video     : 14 ms
    Stream size                 : 4.86 GiB (11%)
    Language                    : English
    Default                     : No
    Forced                      : No
    Number of dynamic objects   : 13
    Bed channel count           : 1 channel
    Bed channel configuration   : LFE

    Audio #2
    ID                          : 3
    Format                      : AC-3
    Format/Info                 : Audio Coding 3
    Commercial name             : Dolby Digital
    Format settings             : Dolby Surround EX
    Codec ID                    : A_AC3
    Duration                    : 1 h 40 min
    Bit rate mode               : Constant
    Bit rate                    : 640 kb/s
    Channel(s)                  : 6 channels
    Channel layout              : L R C LFE Ls Rs
    Sampling rate               : 48.0 kHz
    Frame rate                  : 31.250 FPS (1536 SPF)
    Compression mode            : Lossy
    Delay relative to video     : 31 ms
    Stream size                 : 462 MiB (1%)
    Language                    : English
    Service kind                : Complete Main
    Default                     : No
    Forced                      : No

    Audio #3
    ID                          : 4
    Format                      : E-AC-3
    Format/Info                 : Enhanced AC-3
    Commercial name             : Dolby Digital Plus
    Format profile              : Blu-ray Disc
    Codec ID                    : A_EAC3
    Duration                    : 1 h 40 min
    Bit rate mode               : Constant
    Bit rate                    : 896 kb/s
    Channel(s)                  : 6 channels
    Channel(s)_Original         : 8 channels
    ChannelLayout_Original      : L R C LFE Ls Rs Lrs Rrs
    Sampling rate               : 48.0 kHz
    Frame rate                  : 31.250 FPS (1536 SPF)
    Compression mode            : Lossy
    Stream size                 : 647 MiB (1%)
    Language                    : English
    Service kind                : Complete Main
    Default                     : No
    Forced                      : No

    Audio #4
    ID                          : 5
    Format                      : AC-3
    Format/Info                 : Audio Coding 3
    Commercial name             : Dolby Digital
    Format settings             : Dolby Surround EX
    Codec ID                    : A_AC3
    Duration                    : 1 h 40 min
    Bit rate mode               : Constant
    Bit rate                    : 640 kb/s
    Channel(s)                  : 6 channels
    Channel layout              : L R C LFE Ls Rs
    Sampling rate               : 48.0 kHz
    Frame rate                  : 31.250 FPS (1536 SPF)
    Compression mode            : Lossy
    Stream size                 : 462 MiB (1%)
    Language                    : Spanish
    Service kind                : Complete Main
    Default                     : Yes
    Forced                      : No

    Text
    ID                          : 6
    Format                      : PGS
    Muxing mode                 : zlib
    Codec ID                    : S_HDMV/PGS
    Codec ID/Info               : Picture based subtitle format used on BDs/HD-DVDs
    Duration                    : 1 h 32 min
    Bit rate                    : 41.9 kb/s
    Count of elements           : 3070
    Stream size                 : 27.7 MiB (0%)
    Language                    : Spanish
    Default                     : No
    Forced                      : No

    Menu
    00:00:00.000                : en:Chapter 1
    00:04:18.716                : en:Chapter 2
    00:05:35.668                : en:Chapter 3
    00:11:17.802                : en:Chapter 4
    00:12:16.277                : en:Chapter 5
    00:14:08.847                : en:Chapter 6
    00:16:29.279                : en:Chapter 7
    00:18:50.337                : en:Chapter 8
    00:25:31.988                : en:Chapter 9
    00:30:54.227                : en:Chapter 10
    00:33:01.646                : en:Chapter 11
    00:36:11.836                : en:Chapter 12
    00:40:19.166                : en:Chapter 13
    00:44:58.278                : en:Chapter 14
    00:48:12.389                : en:Chapter 15
    00:51:28.418                : en:Chapter 16
    00:56:07.030                : en:Chapter 17
    01:00:55.902                : en:Chapter 18
    01:05:20.666                : en:Chapter 19
    01:07:02.101                : en:Chapter 20
    01:08:30.147                : en:Chapter 21
    01:13:19.436                : en:Chapter 22
    01:14:15.200                : en:Chapter 23
    01:16:00.097                : en:Chapter 24
    01:18:41.299                : en:Chapter 25
    01:21:57.621                : en:Chapter 26
    01:24:29.481                : en:Chapter 27
    01:26:54.334                : en:Chapter 28
    01:29:26.611                : en:Chapter 29
    01:30:51.362                : en:Chapter 30
    01:32:42.974                : en:Chapter 31
    01:33:24.265                : en:Chapter 32

  • Peso: 44.0 GiB

Sinopsis

Nemo, un pececillo, hijo único muy querido y protegido por su padre, ha sido capturado en un arrecife australiano y ahora vive en una pecera en la oficina de un dentista de Sidney. El tímido padre de Nemo se embarcará en una peligrosa aventura para rescatar a su hijo. Pero Nemo y sus nuevos amigos tienen también un astuto plan para escapar de la pecera y volver al mar.

Ficha técnica

Video trailer de la película

Enlaces de descarga

Rip de Bluray

Descargar Finding Nemo (2003) REMUX 4K HDR Latino – CMHDD


Aportes de DPeliculasHDmega la pass es:dpeliculashdmega.org Aportes de CinemaniaHD la pass es:cinemaniahdd.com
Guardado en : Animación , Familia

Películas relacionadas

  • La Princesa Prometida (1987) REMUX 1080p Latino

    La Princesa Prometida (1987) REMUX 1080p Latino

    1987
    La Princesa Prometida (1987) REMUX 1080p Latino

    1h 38m 1987

    Descargar La Princesa Prometida (1987) REMUX 1080p Latino. Después de buscar fortuna durante cinco años,...

    Director: Rob Reiner

    Género: Aventura

    Actores: Willy DeVille

  • La isla de Nim (2008) 1080p Latino

    La isla de Nim (2008) 1080p Latino

    2008
    La isla de Nim (2008) 1080p Latino

    1h 36m 2008

    Descargar La isla de Nim (2008) 1080p Latino. Nim y su padre Jack son los únicos habitantes de una remota...

    Director: Mark Levin

    Género: Aventura

    Actores: Tony Bellette

  • La isla de Nim (2008) Full HD 1080p Latino

    La isla de Nim (2008) Full HD 1080p Latino

    2008
    La isla de Nim (2008) Full HD 1080p Latino

    1h 36m 2008

    Descargar La isla de Nim (2008) Full HD 1080p Latino. Nim y su padre Jack son los únicos habitantes...

    Director: Mark Levin

    Género: Aventura

    Actores: Tony Bellette

  • La isla de Nim (2008) REMUX 1080p Latino

    La isla de Nim (2008) REMUX 1080p Latino

    2008
    La isla de Nim (2008) REMUX 1080p Latino

    1h 36m 2008

    Descargar La isla de Nim (2008) REMUX 1080p Latino. Nim y su padre Jack son los únicos habitantes de...

    Director: Mark Levin

    Género: Aventura

    Actores: Tony Bellette

descargar Finding Nemo (2003) REMUX 4K HDR Latino – CMHDD 1080p gratis, Finding Nemo (2003) REMUX 4K HDR Latino – CMHDD mega 1 link, Finding Nemo (2003) REMUX 4K HDR Latino – CMHDD pelicula completa, descargar Finding Nemo (2003) REMUX 4K HDR Latino – CMHDD gratis en mega.

Finding Nemo (2003) REMUX 4K HDR Latino – CMHDD pelicula full hd, Finding Nemo (2003) REMUX 4K HDR Latino – CMHDD mega latino, Finding Nemo (2003) REMUX 4K HDR Latino – CMHDD 4k latino, Finding Nemo (2003) REMUX 4K HDR Latino – CMHDD pelicula completa, Finding Nemo (2003) REMUX 4K HDR Latino – CMHDD descargar gratis, descargar Finding Nemo (2003) REMUX 4K HDR Latino – CMHDD pelicula latino, Finding Nemo (2003) REMUX 4K HDR Latino – CMHDD 1 link mega, Finding Nemo (2003) REMUX 4K HDR Latino – CMHDD 1 link google drive, Finding Nemo (2003) REMUX 4K HDR Latino – CMHDD hd 1080p latino.
Comentarios 0