×

¿Problemas para descargar con Mozilla, EDGE? Deshabilita la opción "Abrir vinculos en una pestaña nueva" tal como lo muestra ésta imagen.

Fantasia (1940) REMUX 1080p Latino – CMHDD

435 vistas

Información de Fantasia (1940) REMUX 1080p Latino – CMHDD

Datos de la película

  • Calidad: Full 1080p
  • Audio: Español Latino AC3 5.1 BLURAY - Ingles DTS-HD Master 7.1 BLURAY
  • Subtitulos: Español Latino SRT
  • Resolución: 1920x1080p
  • Formato: MKV
  • Codec: H.264
  • Encoder: Dracarys
  • Mediainfo: Clic para Mostrar Datos Ver
  • Format                      : Matroska
    Format version              : Version 4
    File size                   : 25.0 GiB
    Duration                    : 2 h 4 min
    Overall bit rate mode       : Variable
    Overall bit rate            : 28.7 Mb/s
    Movie name                  : Fantasia (1940) REMUX 1080p Latino - CMHDD
    Encoded date                : UTC 2020-08-08 02:37:37
    Writing application         : mkvmerge v46.0.0 ('No Deeper Escape') 64-bit
    Writing library             : libebml v1.3.10 + libmatroska v1.5.2

    Video
    ID                          : 1
    Format                      : AVC
    Format/Info                 : Advanced Video Codec
    Format profile              : High@L4.1
    Format settings             : CABAC / 4 Ref Frames
    Format settings, CABAC      : Yes
    Format settings, Reference  : 4 frames
    Format settings, GOP        : M=3, N=12
    Codec ID                    : V_MPEG4/ISO/AVC
    Duration                    : 2 h 4 min
    Bit rate mode               : Variable
    Bit rate                    : 22.9 Mb/s
    Maximum bit rate            : 27.5 Mb/s
    Width                       : 1 920 pixels
    Height                      : 1 080 pixels
    Display aspect ratio        : 16:9
    Frame rate mode             : Constant
    Frame rate                  : 23.976 (24000/1001) FPS
    Color space                 : YUV
    Chroma subsampling          : 4:2:0
    Bit depth                   : 8 bits
    Scan type                   : Progressive
    Bits/(Pixel*Frame)          : 0.460
    Stream size                 : 19.9 GiB (80%)
    Default                     : Yes
    Forced                      : No
    Color range                 : Limited
    Color primaries             : BT.709
    Transfer characteristics    : BT.709
    Matrix coefficients         : BT.709

    Audio #1
    ID                          : 2
    Format                      : AC-3
    Format/Info                 : Audio Coding 3
    Commercial name             : Dolby Digital
    Codec ID                    : A_AC3
    Duration                    : 2 h 4 min
    Bit rate mode               : Constant
    Bit rate                    : 640 kb/s
    Channel(s)                  : 6 channels
    Channel layout              : L R C LFE Ls Rs
    Sampling rate               : 48.0 kHz
    Frame rate                  : 31.250 FPS (1536 SPF)
    Compression mode            : Lossy
    Stream size                 : 570 MiB (2%)
    Language                    : Spanish
    Service kind                : Complete Main
    Default                     : Yes
    Forced                      : No

    Audio #2
    ID                          : 3
    Format                      : DTS XLL
    Format/Info                 : Digital Theater Systems
    Commercial name             : DTS-HD Master Audio
    Codec ID                    : A_DTS
    Duration                    : 2 h 4 min
    Bit rate mode               : Variable
    Bit rate                    : 5 201 kb/s
    Channel(s)                  : 8 channels
    Channel layout              : C L R LFE Lb Rb Lss Rss
    Sampling rate               : 48.0 kHz
    Frame rate                  : 93.750 FPS (512 SPF)
    Bit depth                   : 24 bits
    Compression mode            : Lossless
    Stream size                 : 4.52 GiB (18%)
    Language                    : English
    Default                     : No
    Forced                      : No

    Text
    ID                          : 4
    Format                      : UTF-8
    Codec ID                    : S_TEXT/UTF8
    Codec ID/Info               : UTF-8 Plain Text
    Duration                    : 1 h 48 min
    Bit rate                    : 13 b/s
    Count of elements           : 233
    Stream size                 : 11.0 KiB (0%)
    Language                    : Spanish
    Default                     : No
    Forced                      : No
     

  • Peso: 25.0 GiB

Sinopsis

Todo un clásico de la Disney, una colección de interpretaciones animadas de grandes obras de música clásica. En «El Aprendiz de Brujo» (P. Dukas), Mickey Mouse, discípulo de un mago, se mete en un gran embrollo, pues sus conocimientos de magia son muy limitados. «La Consagración de la Primavera» (Stravinsky) cuenta la historia de la evolución, desde los seres unicelulares hasta la extinción de los dinosaurios. «La Danza de las Horas» (Ponchielli) es un fragmento de un ballet cómico interpretado por elefantes, hipopótamos, cocodrilos y avestruces. «Una Noche en el Monte Pelado» de Mussorgsky y el «Ave Maria» de Schubert describen el enfrentamiento entre la oscuridad y la luz.

Ficha técnica

Video trailer de la película

Enlaces de descarga

Rip de Bluray

Descargar Fantasia (1940) REMUX 1080p Latino – CMHDD




Aportes de DPeliculasHDmega la pass es:dpeliculashdmega.org Aportes de CinemaniaHD la pass es:cinemaniahdd.com
Guardado en : Animación , Familia

Películas relacionadas

  • Corazón de tinta (2008) Full HD 1080p Latino

    Corazón de tinta (2008) Full HD 1080p Latino

    2008
    Corazón de tinta (2008) Full HD 1080p Latino

    1h 46m 2008

    Descargar Corazón de tinta (2008) Full HD 1080p Latino. Mortimer “Mo” Folchart y su hija de 12 años,...

    Director: Sharon Mansfield

    Género: Aventura

    Actores: Terry Cavanagh

  • Corazón de tinta (2008) REMUX 1080p Latino

    Corazón de tinta (2008) REMUX 1080p Latino

    2008
    Corazón de tinta (2008) REMUX 1080p Latino

    1h 46m 2008

    Descargar Corazón de tinta (2008) REMUX 1080p Latino. Mortimer “Mo” Folchart y su hija de 12 años,...

    Director: Sharon Mansfield

    Género: Aventura

    Actores: Tereza Srbová

  • La Princesa Prometida (1987) REMUX 1080p Latino

    La Princesa Prometida (1987) REMUX 1080p Latino

    1987
    La Princesa Prometida (1987) REMUX 1080p Latino

    1h 38m 1987

    Descargar La Princesa Prometida (1987) REMUX 1080p Latino. Después de buscar fortuna durante cinco años,...

    Director: Rob Reiner

    Género: Aventura

    Actores: Willy DeVille

  • La isla de Nim (2008) 1080p Latino

    La isla de Nim (2008) 1080p Latino

    2008
    La isla de Nim (2008) 1080p Latino

    1h 36m 2008

    Descargar La isla de Nim (2008) 1080p Latino. Nim y su padre Jack son los únicos habitantes de una remota...

    Director: Mark Levin

    Género: Aventura

    Actores: Tony Bellette

descargar Fantasia (1940) REMUX 1080p Latino – CMHDD Full 1080p 1080p gratis, Fantasia (1940) REMUX 1080p Latino – CMHDD Full 1080p mega 1 link, Fantasia (1940) REMUX 1080p Latino – CMHDD Full 1080p pelicula completa, descargar Fantasia (1940) REMUX 1080p Latino – CMHDD Full 1080p gratis en mega.

Fantasia (1940) REMUX 1080p Latino – CMHDD pelicula full hd, Fantasia (1940) REMUX 1080p Latino – CMHDD mega latino, Fantasia (1940) REMUX 1080p Latino – CMHDD 4k latino, Fantasia (1940) REMUX 1080p Latino – CMHDD pelicula completa, Fantasia (1940) REMUX 1080p Latino – CMHDD descargar gratis, descargar Fantasia (1940) REMUX 1080p Latino – CMHDD pelicula latino, Fantasia (1940) REMUX 1080p Latino – CMHDD 1 link mega, Fantasia (1940) REMUX 1080p Latino – CMHDD 1 link google drive, Fantasia (1940) REMUX 1080p Latino – CMHDD hd 1080p latino.
Comentarios 0