×

¿Problemas para descargar con Mozilla, EDGE? Deshabilita la opción "Abrir vinculos en una pestaña nueva" tal como lo muestra ésta imagen.

Ema (2019) REMUX 1080p Latino

302 vistas

Información de Ema (2019) REMUX 1080p Latino

Datos de la película

  • Calidad: Full 1080p
  • Audio: Español Latino DTS 5.1 BLURAY
  • Subtitulos: No
  • Resolución: 1920x1080p
  • Formato: MKV
  • Codec: H.264
  • Encoder: Melkor
  • Mediainfo: Clic para Mostrar Datos Ver
  • Ema (2019) REMUX 1080p Latino.mkv
    Format                      : Matroska
    Format version              : Version 4
    File size                   : 28.6 GiB
    Duration                    : 1 h 46 min
    Overall bit rate mode       : Variable
    Overall bit rate            : 38.3 Mb/s
    Movie name                  : Ema (2019) CinemaniaHDD.Net
    Encoded date                : UTC 2020-09-06 22:43:19
    Writing application         : mkvmerge v46.0.0 ('No Deeper Escape') 64-bit
    Writing library             : libebml v1.3.10 + libmatroska v1.5.2
    Attachments                 : CINEMANIAHD.png

    Video
    ID                          : 1
    Format                      : AVC
    Format/Info                 : Advanced Video Codec
    Format profile              : High@L4.1
    Format settings             : CABAC / 4 Ref Frames
    Format settings, CABAC      : Yes
    Format settings, Reference  : 4 frames
    Format settings, GOP        : M=3, N=24
    Codec ID                    : V_MPEG4/ISO/AVC
    Duration                    : 1 h 46 min
    Bit rate mode               : Constant
    Bit rate                    : 33.2 Mb/s
    Nominal bit rate            : 35.0 Mb/s
    Width                       : 1 920 pixels
    Height                      : 1 080 pixels
    Display aspect ratio        : 16:9
    Frame rate mode             : Constant
    Frame rate                  : 24.000 FPS
    Standard                    : NTSC
    Color space                 : YUV
    Chroma subsampling          : 4:2:0
    Bit depth                   : 8 bits
    Scan type                   : Progressive
    Bits/(Pixel*Frame)          : 0.668
    Stream size                 : 24.8 GiB (87%)
    Title                       : REMUX 1080p [CinemaniaHDD]
    Default                     : Yes
    Forced                      : Yes
    Color range                 : Limited
    Color primaries             : BT.709
    Transfer characteristics    : BT.709
    Matrix coefficients         : BT.709

    Audio #1
    ID                          : 2
    Format                      : DTS XLL
    Format/Info                 : Digital Theater Systems
    Commercial name             : DTS-HD Master Audio
    Codec ID                    : A_DTS
    Duration                    : 1 h 46 min
    Bit rate mode               : Variable
    Bit rate                    : 3 546 kb/s
    Channel(s)                  : 6 channels
    Channel layout              : C L R Ls Rs LFE
    Sampling rate               : 48.0 kHz
    Frame rate                  : 93.750 FPS (512 SPF)
    Bit depth                   : 24 bits
    Compression mode            : Lossless
    Stream size                 : 2.65 GiB (9%)
    Title                       : Español Latino [CinemaniaHDD]
    Language                    : Spanish
    Default                     : Yes
    Forced                      : Yes

    Audio #2
    ID                          : 3
    Format                      : DTS
    Format/Info                 : Digital Theater Systems
    Codec ID                    : A_DTS
    Duration                    : 1 h 46 min
    Bit rate mode               : Constant
    Bit rate                    : 1 509 kb/s
    Channel(s)                  : 6 channels
    Channel layout              : C L R Ls Rs LFE
    Sampling rate               : 48.0 kHz
    Frame rate                  : 93.750 FPS (512 SPF)
    Bit depth                   : 24 bits
    Compression mode            : Lossy
    Stream size                 : 1.13 GiB (4%)
    Title                       : Español Latino Core DTS [CinemaniaHDD]
    Language                    : Spanish
    Default                     : No
    Forced                      : No

    Menu
    00:00:00.000                : es:Chapter 01
    00:09:27.792                : es:Chapter 02
    00:19:21.750                : es:Chapter 03
    00:29:46.542                : es:Chapter 04
    00:38:21.042                : es:Chapter 05
    00:51:14.250                : es:Chapter 06
    00:59:43.625                : es:Chapter 07
    01:06:22.042                : es:Chapter 08
    01:14:13.167                : es:Chapter 09
    01:25:43.208                : es:Chapter 10
    01:34:45.708                : es:Chapter 11
    01:43:10.625                : es:Chapter 12

  • Peso: 28.6 GiB

Sinopsis

Descargar Ema (2019) REMUX 1080p Latino. Ema, una joven bailarina, decide separarse de Gastón luego de entregar a Polo en adopción, el hijo que ambos habían adoptado y que fueron incapaces de criar. Desesperada por las calles del puerto de Valparaíso, Ema busca nuevos amores para aplacar la culpa. Sin embargo, ese no es su único objetivo, también tiene un plan secreto para recuperarlo todo.

Ficha técnica

Video trailer de la película

Enlaces de descarga

Rip de Bluray

Descargar Ema (2019) REMUX 1080p Latino




Aportes de DPeliculasHDmega la pass es:dpeliculashdmega.org Aportes de CinemaniaHD la pass es:cinemaniahdd.com
Guardado en : Drama , Remux

Películas relacionadas

  • Noche sin paz (2022) REMUX 1080p Latino

    Noche sin paz (2022) REMUX 1080p Latino

    2022
    Noche sin paz (2022) REMUX 1080p Latino

    1h 41m 2022

    Descargar Noche sin paz (2022) REMUX 1080p Latino. Cuando un equipo de mercenarios irrumpe en Nochebuena...

    Director: Tyshana Hobson

    Género: Acción

    Actores: Yoon Cha-Lee

  • Narvik (2022) NF WEB-DL 1080p Latino

    Narvik (2022) NF WEB-DL 1080p Latino

    2022
    Narvik (2022) NF WEB-DL 1080p Latino

    1h 48m 2022

    Descargar Narvik (2022) NF WEB-DL 1080p Latino. Abril de 1940. Los ojos del mundo están puestos en Narvik,...

    Director: Suzanne Svae-Johansen

    Género: Acción

    Actores: Torfinn Nag

  • Groundhog Day (1993) REMUX 4K HDR Latino – CMHDD

    Groundhog Day (1993) REMUX 4K HDR Latino – CMHDD

    1993
    Groundhog Day (1993) REMUX 4K HDR Latino – CMHDD

    1h 41m 1993

    Phil, hombre del tiempo de una cadena de televisión, es enviado un año más a Punxstawnwey, a cubrir...

    Director: Sam Hoffman

    Género: Comedia

    Actores: Willie Garson

descargar Ema (2019) REMUX 1080p Latino Full 1080p 1080p gratis, Ema (2019) REMUX 1080p Latino Full 1080p mega 1 link, Ema (2019) REMUX 1080p Latino Full 1080p pelicula completa, descargar Ema (2019) REMUX 1080p Latino Full 1080p gratis en mega.

Ema (2019) REMUX 1080p Latino pelicula full hd, Ema (2019) REMUX 1080p Latino mega latino, Ema (2019) REMUX 1080p Latino 4k latino, Ema (2019) REMUX 1080p Latino pelicula completa, Ema (2019) REMUX 1080p Latino descargar gratis, descargar Ema (2019) REMUX 1080p Latino pelicula latino, Ema (2019) REMUX 1080p Latino 1 link mega, Ema (2019) REMUX 1080p Latino 1 link google drive, Ema (2019) REMUX 1080p Latino hd 1080p latino.
Comentarios 0