×

¿Problemas para descargar con Mozilla, EDGE? Deshabilita la opción "Abrir vinculos en una pestaña nueva" tal como lo muestra ésta imagen.

El Justiciero: Capítulo final (2023) REMUX 1080p Latino

146 vistas

Información de El Justiciero: Capítulo final (2023) REMUX 1080p Latino

Datos de la película

  • Calidad: Full 1080p
  • Audio: Se especifica abajo de la Sinopsis
  • Subtitulos: Español Latino PGS - Ingles PGS
  • Resolución: 1920x1080p
  • Formato: MKV
  • Codec: H.264
  • Encoder: Melkor
  • Mediainfo: Clic para Mostrar Datos Ver
  • El Justiciero Capitulo Final (2023) REMUX 1080p Latino.mkv
    Format                      : Matroska
    Format version              : Version 4
    File size                   : 25.6 GiB
    Duration                    : 1 h 48 min
    Overall bit rate mode       : Variable
    Overall bit rate            : 33.7 Mb/s
    Movie name                  : The Equalizer 3 (2023) CinemaniaHDD.Net
    Encoded date                : UTC 2023-11-09 04:11:59
    Writing application         : mkvmerge v56.1.0 ('My Friend') 64-bit
    Writing library             : libebml v1.4.2 + libmatroska v1.6.4
    Attachments                 : CINEMANIAHD.png
    Site                        : CinemaniaHDD.Net
    Uploader                    : Melkor

    Video
    ID                          : 1
    Format                      : AVC
    Format/Info                 : Advanced Video Codec
    Format profile              : High@L4.1
    Format settings             : CABAC / 2 Ref Frames
    Format settings, CABAC      : Yes
    Format settings, Reference  : 2 frames
    Format settings, GOP        : M=1, N=10
    Codec ID                    : V_MPEG4/ISO/AVC
    Duration                    : 1 h 48 min
    Bit rate mode               : Variable
    Bit rate                    : 27.8 Mb/s
    Width                       : 1 920 pixels
    Height                      : 1 080 pixels
    Display aspect ratio        : 16:9
    Frame rate mode             : Constant
    Frame rate                  : 23.976 (24000/1001) FPS
    Color space                 : YUV
    Chroma subsampling          : 4:2:0
    Bit depth                   : 8 bits
    Scan type                   : Progressive
    Bits/(Pixel*Frame)          : 0.559
    Stream size                 : 21.2 GiB (83%)
    Title                       : REMUX HD1080p [CinemaniaHDD]
    Default                     : Yes
    Forced                      : Yes

    Audio #1
    ID                          : 2
    Format                      : DTS
    Format/Info                 : Digital Theater Systems
    Codec ID                    : A_DTS
    Duration                    : 1 h 48 min
    Bit rate mode               : Constant
    Bit rate                    : 1 509 kb/s
    Channel(s)                  : 6 channels
    Channel layout              : C L R Ls Rs LFE
    Sampling rate               : 48.0 kHz
    Frame rate                  : 93.750 FPS (512 SPF)
    Bit depth                   : 24 bits
    Compression mode            : Lossy
    Stream size                 : 1.15 GiB (4%)
    Title                       : Español Latino Core DTS [CinemaniaHDD]
    Language                    : Spanish
    Default                     : Yes
    Forced                      : Yes

    Audio #2
    ID                          : 3
    Format                      : DTS XLL
    Format/Info                 : Digital Theater Systems
    Commercial name             : DTS-HD Master Audio
    Codec ID                    : A_DTS
    Duration                    : 1 h 48 min
    Bit rate mode               : Variable
    Bit rate                    : 2 170 kb/s
    Channel(s)                  : 6 channels
    Channel layout              : C L R Ls Rs LFE
    Sampling rate               : 48.0 kHz
    Frame rate                  : 93.750 FPS (512 SPF)
    Bit depth                   : 16 bits
    Compression mode            : Lossless
    Stream size                 : 1.65 GiB (6%)
    Title                       : Español Latino [CinemaniaHDD]
    Language                    : Spanish
    Default                     : No
    Forced                      : No

    Audio #3
    ID                          : 4
    Format                      : DTS XLL
    Format/Info                 : Digital Theater Systems
    Commercial name             : DTS-HD Master Audio
    Codec ID                    : A_DTS
    Duration                    : 1 h 48 min
    Bit rate mode               : Variable
    Bit rate                    : 2 163 kb/s
    Channel(s)                  : 6 channels
    Channel layout              : C L R Ls Rs LFE
    Sampling rate               : 48.0 kHz
    Frame rate                  : 93.750 FPS (512 SPF)
    Bit depth                   : 16 bits
    Compression mode            : Lossless
    Stream size                 : 1.65 GiB (6%)
    Title                       : Ingles [CinemaniaHDD]
    Language                    : English
    Default                     : No
    Forced                      : No

    Text #1
    ID                          : 5
    Format                      : PGS
    Muxing mode                 : zlib
    Codec ID                    : S_HDMV/PGS
    Codec ID/Info               : Picture based subtitle format used on BDs/HD-DVDs
    Duration                    : 1 h 47 min
    Bit rate                    : 6 020 b/s
    Count of elements           : 620
    Stream size                 : 4.65 MiB (0%)
    Title                       : Forzados-PGS [CinemaniaHDD]
    Language                    : Spanish
    Default                     : No
    Forced                      : No

    Text #2
    ID                          : 6
    Format                      : PGS
    Muxing mode                 : zlib
    Codec ID                    : S_HDMV/PGS
    Codec ID/Info               : Picture based subtitle format used on BDs/HD-DVDs
    Duration                    : 1 h 47 min
    Bit rate                    : 17.8 kb/s
    Count of elements           : 1811
    Stream size                 : 13.7 MiB (0%)
    Title                       : Español-PGS [CinemaniaHDD]
    Language                    : Spanish
    Default                     : No
    Forced                      : No

    Text #3
    ID                          : 7
    Format                      : PGS
    Muxing mode                 : zlib
    Codec ID                    : S_HDMV/PGS
    Codec ID/Info               : Picture based subtitle format used on BDs/HD-DVDs
    Duration                    : 1 h 40 min
    Bit rate                    : 19.9 kb/s
    Count of elements           : 1764
    Stream size                 : 14.3 MiB (0%)
    Title                       : Ingles-PGS [CinemaniaHDD]
    Language                    : English
    Default                     : No
    Forced                      : No

    Text #4
    ID                          : 8
    Format                      : UTF-8
    Codec ID                    : S_TEXT/UTF8
    Codec ID/Info               : UTF-8 Plain Text
    Duration                    : 1 h 47 min
    Bit rate                    : 9 b/s
    Count of elements           : 311
    Stream size                 : 7.69 KiB (0%)
    Title                       : Forzados-SRT [CinemaniaHDD]
    Language                    : Spanish
    Default                     : Yes
    Forced                      : Yes

    Text #5
    ID                          : 9
    Format                      : UTF-8
    Codec ID                    : S_TEXT/UTF8
    Codec ID/Info               : UTF-8 Plain Text
    Duration                    : 1 h 41 min
    Bit rate                    : 37 b/s
    Count of elements           : 917
    Stream size                 : 27.8 KiB (0%)
    Title                       : Español-SRT [CinemaniaHDD]
    Language                    : Spanish
    Default                     : No
    Forced                      : No

    Menu
    00:00:00.000                : Chapter 01
    00:10:51.150                : Chapter 02
    00:14:26.574                : Chapter 03
    00:21:57.274                : Chapter 04
    00:27:03.872                : Chapter 05
    00:32:56.975                : Chapter 06
    00:39:29.575                : Chapter 07
    00:44:53.107                : Chapter 08
    00:49:06.860                : Chapter 09
    00:55:46.551                : Chapter 10
    01:01:03.951                : Chapter 11
    01:08:49.542                : Chapter 12
    01:15:18.180                : Chapter 13
    01:23:02.727                : Chapter 14
    01:31:04.792                : Chapter 15
    01:38:41.373                : Chapter 16

  • Peso: 25.6 GiB

Sinopsis

Descargar El Justiciero: Capítulo final (2023) REMUX 1080p Latino. Desde que renunció a su vida como asesino del gobierno, Robert McCall (Denzel Washington) ha luchado para reconciliarse con las cosas horribles que ha hecho en el pasado y encuentra un extraño consuelo en hacer justicia en nombre de los oprimidos. Mientras se encuentra en su casa en el sur de Italia, descubre que sus nuevos amigos están bajo el control de los jefes del crimen local. A medida que los acontecimientos comienzan a complicarse, McCall entiende lo que tiene que hacer: convertirse en el protector de sus amigos enfrentándose a la temida mafia.

Español Latino DTS-HD & Core DTS 5.1 BD – Ingles DTS-HD 5.1 BD

Ficha técnica

Video trailer de la película

Enlaces de descarga

Rip de Bluray

Descargar El Justiciero: Capítulo final (2023) REMUX 1080p Latino




Aportes de DPeliculasHDmega la pass es:dpeliculashdmega.org Aportes de CinemaniaHD la pass es:cinemaniahdd.com Aportes recientes:cinemaniahdd.net
Guardado en : Acción , Crimen , Remux , Suspenso

Películas relacionadas

descargar El Justiciero: Capítulo final (2023) REMUX 1080p Latino Full 1080p 1080p gratis, El Justiciero: Capítulo final (2023) REMUX 1080p Latino Full 1080p mega 1 link, El Justiciero: Capítulo final (2023) REMUX 1080p Latino Full 1080p pelicula completa, descargar El Justiciero: Capítulo final (2023) REMUX 1080p Latino Full 1080p gratis en mega.

El Justiciero: Capítulo final (2023) REMUX 1080p Latino pelicula full hd, El Justiciero: Capítulo final (2023) REMUX 1080p Latino mega latino, El Justiciero: Capítulo final (2023) REMUX 1080p Latino 4k latino, El Justiciero: Capítulo final (2023) REMUX 1080p Latino pelicula completa, El Justiciero: Capítulo final (2023) REMUX 1080p Latino descargar gratis, descargar El Justiciero: Capítulo final (2023) REMUX 1080p Latino pelicula latino, El Justiciero: Capítulo final (2023) REMUX 1080p Latino 1 link mega, El Justiciero: Capítulo final (2023) REMUX 1080p Latino 1 link google drive, El Justiciero: Capítulo final (2023) REMUX 1080p Latino hd 1080p latino.
Comentarios 0