×

¿Problemas para descargar con Mozilla, EDGE? Deshabilita la opción "Abrir vinculos en una pestaña nueva" tal como lo muestra ésta imagen.

El Justiciero: Capítulo final (2023) PLACEBO Full HD 1080p Latino

284 vistas

Información de El Justiciero: Capítulo final (2023) PLACEBO Full HD 1080p Latino

Datos de la película

  • Calidad: Full 1080p
  • Audio: Español Latino DTS 5.1 BLURAY - Ingles DTS 5.1 BLURAY
  • Subtitulos: Español Latino PGS - Ingles PGS
  • Resolución: 1920x1080p
  • Formato: MKV
  • Codec: H.264
  • Encoder: Melkor
  • Mediainfo: Clic para Mostrar Datos Ver
  • El Justiciero Capitulo Final (2023) PLACEBO 1080p Latino.mkv
    Format                      : Matroska
    Format version              : Version 4
    File size                   : 4.80 GiB
    Duration                    : 1 h 48 min
    Overall bit rate            : 6 313 kb/s
    Movie name                  : The Equalizer 3 (2023) CinemaniaHDD.Net
    Encoded date                : UTC 2023-11-09 18:18:10
    Writing application         : mkvmerge v56.1.0 ('My Friend') 64-bit
    Writing library             : libebml v1.4.2 + libmatroska v1.6.4
    Attachments                 : CINEMANIAHD.png
    Site                        : CinemaniaHDD.Net
    Uploader                    : Melkor

    Video
    ID                          : 1
    Format                      : AVC
    Format/Info                 : Advanced Video Codec
    Format profile              : High@L4.1
    Format settings             : CABAC / 4 Ref Frames
    Format settings, CABAC      : Yes
    Format settings, Reference  : 4 frames
    Codec ID                    : V_MPEG4/ISO/AVC
    Duration                    : 1 h 48 min
    Bit rate                    : 3 270 kb/s
    Width                       : 1 920 pixels
    Height                      : 1 080 pixels
    Display aspect ratio        : 16:9
    Frame rate mode             : Constant
    Frame rate                  : 23.976 (24000/1001) FPS
    Color space                 : YUV
    Chroma subsampling          : 4:2:0
    Bit depth                   : 8 bits
    Scan type                   : Progressive
    Bits/(Pixel*Frame)          : 0.066
    Stream size                 : 2.49 GiB (52%)
    Title                       : Full HD1080p [CinemaniaHDD]
    Writing library             : x264 core 163 r3059 b684ebe0
    Encoding settings           : cabac=1 / ref=4 / deblock=1:0:0 / analyse=0x3:0x133 / me=tesa / subme=11 / psy=1 / psy_rd=1.00:0.00 / mixed_ref=1 / me_range=24 / chroma_me=1 / trellis=2 / 8x8dct=1 / cqm=0 / deadzone=21,11 / fast_pskip=0 / chroma_qp_offset=-2 / threads=24 / lookahead_threads=6 / sliced_threads=0 / nr=0 / decimate=1 / interlaced=0 / bluray_compat=0 / constrained_intra=0 / bframes=16 / b_pyramid=2 / b_adapt=2 / b_bias=0 / direct=3 / weightb=1 / open_gop=0 / weightp=2 / keyint=240 / keyint_min=24 / scenecut=40 / intra_refresh=0 / rc_lookahead=60 / rc=crf / mbtree=1 / crf=19.0 / qcomp=0.60 / qpmin=0 / qpmax=69 / qpstep=4 / vbv_maxrate=62500 / vbv_bufsize=78125 / crf_max=0.0 / nal_hrd=none / filler=0 / ip_ratio=1.40 / aq=1:1.00
    Default                     : Yes
    Forced                      : Yes
    Color range                 : Limited
    Color primaries             : BT.709
    Transfer characteristics    : BT.709
    Matrix coefficients         : BT.709

    Audio #1
    ID                          : 2
    Format                      : DTS
    Format/Info                 : Digital Theater Systems
    Codec ID                    : A_DTS
    Duration                    : 1 h 48 min
    Bit rate mode               : Constant
    Bit rate                    : 1 509 kb/s
    Channel(s)                  : 6 channels
    Channel layout              : C L R Ls Rs LFE
    Sampling rate               : 48.0 kHz
    Frame rate                  : 93.750 FPS (512 SPF)
    Bit depth                   : 24 bits
    Compression mode            : Lossy
    Stream size                 : 1.15 GiB (24%)
    Title                       : Español Latino [CinemaniaHDD]
    Language                    : Spanish
    Default                     : Yes
    Forced                      : Yes

    Audio #2
    ID                          : 3
    Format                      : DTS
    Format/Info                 : Digital Theater Systems
    Codec ID                    : A_DTS
    Duration                    : 1 h 48 min
    Bit rate mode               : Constant
    Bit rate                    : 1 509 kb/s
    Channel(s)                  : 6 channels
    Channel layout              : C L R Ls Rs LFE
    Sampling rate               : 48.0 kHz
    Frame rate                  : 93.750 FPS (512 SPF)
    Bit depth                   : 24 bits
    Compression mode            : Lossy
    Stream size                 : 1.15 GiB (24%)
    Title                       : Ingles [CinemaniaHDD]
    Language                    : English
    Default                     : No
    Forced                      : No

    Text #1
    ID                          : 4
    Format                      : PGS
    Muxing mode                 : zlib
    Codec ID                    : S_HDMV/PGS
    Codec ID/Info               : Picture based subtitle format used on BDs/HD-DVDs
    Duration                    : 1 h 47 min
    Bit rate                    : 6 020 b/s
    Count of elements           : 620
    Stream size                 : 4.65 MiB (0%)
    Title                       : Forzados-PGS [CinemaniaHDD]
    Language                    : Spanish
    Default                     : No
    Forced                      : No

    Text #2
    ID                          : 5
    Format                      : PGS
    Muxing mode                 : zlib
    Codec ID                    : S_HDMV/PGS
    Codec ID/Info               : Picture based subtitle format used on BDs/HD-DVDs
    Duration                    : 1 h 47 min
    Bit rate                    : 17.8 kb/s
    Count of elements           : 1811
    Stream size                 : 13.7 MiB (0%)
    Title                       : Español-PGS [CinemaniaHDD]
    Language                    : Spanish
    Default                     : No
    Forced                      : No

    Text #3
    ID                          : 6
    Format                      : PGS
    Muxing mode                 : zlib
    Codec ID                    : S_HDMV/PGS
    Codec ID/Info               : Picture based subtitle format used on BDs/HD-DVDs
    Duration                    : 1 h 40 min
    Bit rate                    : 19.9 kb/s
    Count of elements           : 1764
    Stream size                 : 14.3 MiB (0%)
    Title                       : Ingles-PGS [CinemaniaHDD]
    Language                    : English
    Default                     : No
    Forced                      : No

    Text #4
    ID                          : 7
    Format                      : UTF-8
    Codec ID                    : S_TEXT/UTF8
    Codec ID/Info               : UTF-8 Plain Text
    Duration                    : 1 h 47 min
    Bit rate                    : 9 b/s
    Count of elements           : 311
    Stream size                 : 7.69 KiB (0%)
    Title                       : Forzados-SRT [CinemaniaHDD]
    Language                    : Spanish
    Default                     : Yes
    Forced                      : Yes

    Text #5
    ID                          : 8
    Format                      : UTF-8
    Codec ID                    : S_TEXT/UTF8
    Codec ID/Info               : UTF-8 Plain Text
    Duration                    : 1 h 41 min
    Bit rate                    : 37 b/s
    Count of elements           : 917
    Stream size                 : 27.8 KiB (0%)
    Title                       : Español-SRT [CinemaniaHDD]
    Language                    : Spanish
    Default                     : No
    Forced                      : No

    Menu
    00:00:00.000                : Chapter 01
    00:10:51.150                : Chapter 02
    00:14:26.574                : Chapter 03
    00:21:57.274                : Chapter 04
    00:27:03.872                : Chapter 05
    00:32:56.975                : Chapter 06
    00:39:29.575                : Chapter 07
    00:44:53.107                : Chapter 08
    00:49:06.860                : Chapter 09
    00:55:46.551                : Chapter 10
    01:01:03.951                : Chapter 11
    01:08:49.542                : Chapter 12
    01:15:18.180                : Chapter 13
    01:23:02.727                : Chapter 14
    01:31:04.792                : Chapter 15
    01:38:41.373                : Chapter 16

  • Peso: 4.80 GiB

Sinopsis

Descargar El Justiciero: Capítulo final (2023) PLACEBO Full HD 1080p Latino. Desde que renunció a su vida como asesino del gobierno, Robert McCall (Denzel Washington) ha luchado para reconciliarse con las cosas horribles que ha hecho en el pasado y encuentra un extraño consuelo en hacer justicia en nombre de los oprimidos. Mientras se encuentra en su casa en el sur de Italia, descubre que sus nuevos amigos están bajo el control de los jefes del crimen local. A medida que los acontecimientos comienzan a complicarse, McCall entiende lo que tiene que hacer: convertirse en el protector de sus amigos enfrentándose a la temida mafia.

Ficha técnica

Video trailer de la película

Enlaces de descarga

Rip de Bluray

Descargar El Justiciero: Capítulo final (2023) PLACEBO Full HD 1080p Latino




Aportes de DPeliculasHDmega la pass es:dpeliculashdmega.org Aportes de CinemaniaHD la pass es:cinemaniahdd.com Aportes recientes:cinemaniahdd.net

Películas relacionadas

  • El bebé de Rosemary (1968) 1080p Latino-CMHDD

    El bebé de Rosemary (1968) 1080p Latino-CMHDD

    1968
    El bebé de Rosemary (1968) 1080p Latino-CMHDD

    2h 18m 1968

    Descargar El bebé de Rosemary (1968) 1080p Latino-CMHDD. Una joven pareja, Rosemary y Guy, se muda a...

    Director: Roman Polanski

    Género: Drama

    Actores: William Castle

  • El Contador (2016) Full HD 1080p Latino-CMHDD

    El Contador (2016) Full HD 1080p Latino-CMHDD

    2016
    El Contador (2016) Full HD 1080p Latino-CMHDD

    2h 8m 2016

    Descargar El Contador (2016) Full HD 1080p Latino-CMHDD. Christian Wolff es un contable y genio matemático,...

    Director: Lori Grabowski

    Género: Crimen

    Actores: Tait Fletcher

  • El Contador (2016) REMUX 1080p Latino-CMHDD

    El Contador (2016) REMUX 1080p Latino-CMHDD

    2016
    El Contador (2016) REMUX 1080p Latino-CMHDD

    2h 8m 2016

    Descargar El Contador (2016) REMUX 1080p Latino-CMHDD. Christian Wolff es un contable y genio matemático,...

    Director: Lori Grabowski

    Género: Crimen

    Actores: Tait Fletcher

descargar El Justiciero: Capítulo final (2023) PLACEBO Full HD 1080p Latino Full 1080p 1080p gratis, El Justiciero: Capítulo final (2023) PLACEBO Full HD 1080p Latino Full 1080p mega 1 link, El Justiciero: Capítulo final (2023) PLACEBO Full HD 1080p Latino Full 1080p pelicula completa, descargar El Justiciero: Capítulo final (2023) PLACEBO Full HD 1080p Latino Full 1080p gratis en mega.

El Justiciero: Capítulo final (2023) PLACEBO Full HD 1080p Latino pelicula full hd, El Justiciero: Capítulo final (2023) PLACEBO Full HD 1080p Latino mega latino, El Justiciero: Capítulo final (2023) PLACEBO Full HD 1080p Latino 4k latino, El Justiciero: Capítulo final (2023) PLACEBO Full HD 1080p Latino pelicula completa, El Justiciero: Capítulo final (2023) PLACEBO Full HD 1080p Latino descargar gratis, descargar El Justiciero: Capítulo final (2023) PLACEBO Full HD 1080p Latino pelicula latino, El Justiciero: Capítulo final (2023) PLACEBO Full HD 1080p Latino 1 link mega, El Justiciero: Capítulo final (2023) PLACEBO Full HD 1080p Latino 1 link google drive, El Justiciero: Capítulo final (2023) PLACEBO Full HD 1080p Latino hd 1080p latino.
Comentarios 0