×

¿Problemas para descargar con Mozilla, EDGE? Deshabilita la opción "Abrir vinculos en una pestaña nueva" tal como lo muestra ésta imagen.

El Justiciero: Capítulo final (2023) MA WEB-DL 1080p Latino

137 vistas

Información de El Justiciero: Capítulo final (2023) MA WEB-DL 1080p Latino

Datos de la película

  • Calidad: WEBDL
  • Audio: Español Latino AC3 5.1 WEB-DL - Ingles AC3 5.1 WEB-DL
  • Subtitulos: Español Latino SRT- FORZADOS SRT
  • Resolución: 1920x1080p
  • Formato: MKV
  • Codec: H.264
  • Encoder: Melkor
  • Mediainfo: Clic para Mostrar Datos Ver
  • El Justiciero Capitulo Final (2023) MA WEB 1080p Latino.mkv
    Format                      : Matroska
    Format version              : Version 4
    File size                   : 6.71 GiB
    Duration                    : 1 h 48 min
    Overall bit rate            : 8 819 kb/s
    Movie name                  : The Equalizer 3 (2023) CinemaniaHDD.Net
    Encoded date                : UTC 2023-10-29 19:08:56
    Writing application         : mkvmerge v56.1.0 ('My Friend') 64-bit
    Writing library             : libebml v1.4.2 + libmatroska v1.6.4
    Attachments                 : CINEMANIAHD.png
    Site                        : CinemaniaHDD.Net
    Uploader                    : Melkor

    Video
    ID                          : 1
    Format                      : AVC
    Format/Info                 : Advanced Video Codec
    Format profile              : High@L4
    Format settings             : CABAC / 4 Ref Frames
    Format settings, CABAC      : Yes
    Format settings, Reference  : 4 frames
    Codec ID                    : V_MPEG4/ISO/AVC
    Duration                    : 1 h 48 min
    Bit rate                    : 8 000 kb/s
    Width                       : 1 920 pixels
    Height                      : 1 080 pixels
    Display aspect ratio        : 16:9
    Frame rate mode             : Constant
    Frame rate                  : 23.976 (24000/1001) FPS
    Color space                 : YUV
    Chroma subsampling          : 4:2:0
    Bit depth                   : 8 bits
    Scan type                   : Progressive
    Bits/(Pixel*Frame)          : 0.161
    Stream size                 : 5.93 GiB (88%)
    Title                       : Web HD1080p [CinemaniaHDD]
    Writing library             : x264 core 164 r3094 bfc87b7
    Encoding settings           : cabac=1 / ref=4 / deblock=1:-1:-1 / analyse=0x3:0x133 / me=umh / subme=9 / psy=1 / psy_rd=1.00:0.15 / mixed_ref=1 / me_range=16 / chroma_me=1 / trellis=2 / 8x8dct=1 / cqm=0 / deadzone=21,11 / fast_pskip=1 / chroma_qp_offset=-3 / threads=12 / lookahead_threads=1 / sliced_threads=0 / nr=0 / decimate=1 / interlaced=0 / bluray_compat=0 / stitchable=1 / constrained_intra=0 / bframes=3 / b_pyramid=2 / b_adapt=2 / b_bias=0 / direct=3 / weightb=1 / open_gop=0 / weightp=2 / keyint=48 / keyint_min=4 / scenecut=0 / intra_refresh=0 / rc_lookahead=48 / rc=abr / mbtree=1 / bitrate=8000 / ratetol=1.0 / qcomp=0.60 / qpmin=0 / qpmax=69 / qpstep=4 / vbv_maxrate=8800 / vbv_bufsize=16000 / nal_hrd=none / filler=0 / ip_ratio=1.40 / aq=1:1.00
    Language                    : English
    Default                     : Yes
    Forced                      : Yes
    Color range                 : Limited
    Color primaries             : BT.709
    Transfer characteristics    : BT.709
    Matrix coefficients         : BT.709

    Audio #1
    ID                          : 2
    Format                      : AC-3
    Format/Info                 : Audio Coding 3
    Commercial name             : Dolby Digital
    Codec ID                    : A_AC3
    Duration                    : 1 h 48 min
    Bit rate mode               : Constant
    Bit rate                    : 384 kb/s
    Channel(s)                  : 6 channels
    Channel layout              : L R C LFE Ls Rs
    Sampling rate               : 48.0 kHz
    Frame rate                  : 31.250 FPS (1536 SPF)
    Compression mode            : Lossy
    Stream size                 : 299 MiB (4%)
    Title                       : Español Latino [CinemaniaHDD]
    Language                    : Spanish
    Service kind                : Complete Main
    Default                     : Yes
    Forced                      : Yes

    Audio #2
    ID                          : 3
    Format                      : E-AC-3
    Format/Info                 : Enhanced AC-3
    Commercial name             : Dolby Digital Plus
    Codec ID                    : A_EAC3
    Duration                    : 1 h 48 min
    Bit rate mode               : Constant
    Bit rate                    : 640 kb/s
    Channel(s)                  : 6 channels
    Channel layout              : L R C LFE Ls Rs
    Sampling rate               : 48.0 kHz
    Frame rate                  : 31.250 FPS (1536 SPF)
    Compression mode            : Lossy
    Delay relative to video     : 12 ms
    Stream size                 : 499 MiB (7%)
    Title                       : Ingles [CinemaniaHDD]
    Language                    : English
    Service kind                : Complete Main
    Default                     : No
    Forced                      : No

    Text #1
    ID                          : 4
    Format                      : UTF-8
    Codec ID                    : S_TEXT/UTF8
    Codec ID/Info               : UTF-8 Plain Text
    Duration                    : 1 h 47 min
    Bit rate                    : 9 b/s
    Count of elements           : 311
    Stream size                 : 7.69 KiB (0%)
    Title                       : Forzados-SRT [CinemaniaHDD]
    Language                    : Spanish
    Default                     : Yes
    Forced                      : Yes

    Text #2
    ID                          : 5
    Format                      : UTF-8
    Codec ID                    : S_TEXT/UTF8
    Codec ID/Info               : UTF-8 Plain Text
    Duration                    : 1 h 41 min
    Bit rate                    : 37 b/s
    Count of elements           : 917
    Stream size                 : 27.8 KiB (0%)
    Title                       : Español-SRT [CinemaniaHDD]
    Language                    : Spanish
    Default                     : No
    Forced                      : No

    Text #3
    ID                          : 6
    Format                      : UTF-8
    Codec ID                    : S_TEXT/UTF8
    Codec ID/Info               : UTF-8 Plain Text
    Duration                    : 1 h 44 min
    Bit rate                    : 34 b/s
    Count of elements           : 957
    Stream size                 : 26.4 KiB (0%)
    Title                       : Ingles-SRT [CinemaniaHDD]
    Language                    : English
    Default                     : No
    Forced                      : No

    Menu
    00:00:00.000                : Studio Logos
    00:00:54.000                : Scene 2
    00:05:16.000                : Scene 3
    00:09:22.000                : Title Sequence
    00:09:27.000                : Scene 5
    00:10:52.000                : Scene 6
    00:12:18.000                : Scene 7
    00:13:13.000                : Scene 8
    00:14:28.000                : Scene 9
    00:17:12.000                : Scene 10
    00:21:58.000                : Scene 11
    00:24:16.000                : Scene 12
    00:27:05.000                : Scene 13
    00:28:18.000                : Scene 14
    00:31:01.000                : Scene 15
    00:34:53.000                : Scene 16
    00:35:38.000                : Scene 17
    00:36:49.000                : Scene 18
    00:39:31.000                : Scene 19
    00:41:04.000                : Scene 20
    00:44:20.000                : Scene 21
    00:45:32.000                : Scene 22
    00:48:07.000                : Scene 23
    00:49:19.000                : Scene 24
    00:53:06.000                : Scene 25
    00:55:26.000                : Scene 26
    00:56:27.000                : Scene 27
    00:59:43.000                : Scene 28
    01:04:22.000                : Scene 29
    01:06:35.000                : Scene 30
    01:07:22.000                : Scene 31
    01:08:51.000                : Scene 32
    01:09:51.000                : Scene 33
    01:11:12.000                : Scene 34
    01:15:59.000                : Scene 35
    01:16:14.000                : Scene 36
    01:18:08.000                : Scene 37
    01:22:59.000                : Scene 38
    01:24:07.000                : Scene 39
    01:24:51.000                : Scene 40
    01:31:07.000                : Scene 41
    01:36:08.000                : Scene 42
    01:38:42.000                : Scene 43
    01:42:31.000                : End Credits

  • Peso: 6.71 GiB

Sinopsis

Descargar El Justiciero: Capítulo final (2023) MA WEB-DL 1080p Latino. Desde que renunció a su vida como asesino del gobierno, Robert McCall (Denzel Washington) ha luchado para reconciliarse con las cosas horribles que ha hecho en el pasado y encuentra un extraño consuelo en hacer justicia en nombre de los oprimidos. Mientras se encuentra en su casa en el sur de Italia, descubre que sus nuevos amigos están bajo el control de los jefes del crimen local. A medida que los acontecimientos comienzan a complicarse, McCall entiende lo que tiene que hacer: convertirse en el protector de sus amigos enfrentándose a la temida mafia.

Ficha técnica

Video trailer de la película

Enlaces de descarga

Rip de Bluray

Descargar El Justiciero: Capítulo final (2023) MA WEB-DL 1080p Latino




Aportes de DPeliculasHDmega la pass es:dpeliculashdmega.org Aportes de CinemaniaHD la pass es:cinemaniahdd.com Aportes recientes:cinemaniahdd.net
Guardado en : Acción , Crimen , Suspenso

Películas relacionadas

descargar El Justiciero: Capítulo final (2023) MA WEB-DL 1080p Latino WEBDL 1080p gratis, El Justiciero: Capítulo final (2023) MA WEB-DL 1080p Latino WEBDL mega 1 link, El Justiciero: Capítulo final (2023) MA WEB-DL 1080p Latino WEBDL pelicula completa, descargar El Justiciero: Capítulo final (2023) MA WEB-DL 1080p Latino WEBDL gratis en mega.

El Justiciero: Capítulo final (2023) MA WEB-DL 1080p Latino pelicula full hd, El Justiciero: Capítulo final (2023) MA WEB-DL 1080p Latino mega latino, El Justiciero: Capítulo final (2023) MA WEB-DL 1080p Latino 4k latino, El Justiciero: Capítulo final (2023) MA WEB-DL 1080p Latino pelicula completa, El Justiciero: Capítulo final (2023) MA WEB-DL 1080p Latino descargar gratis, descargar El Justiciero: Capítulo final (2023) MA WEB-DL 1080p Latino pelicula latino, El Justiciero: Capítulo final (2023) MA WEB-DL 1080p Latino 1 link mega, El Justiciero: Capítulo final (2023) MA WEB-DL 1080p Latino 1 link google drive, El Justiciero: Capítulo final (2023) MA WEB-DL 1080p Latino hd 1080p latino.
Comentarios 0