El justiciero 2 (2018) WEB-DL 1080p Subtitulado

2.707 vistas
1 estrella2 estrellas3 estrellas4 estrellas5 estrellas (7 votos, promedio: 3,00 de 5)
Cargando…

Información de El justiciero 2 (2018) WEB-DL 1080p Subtitulado

Datos de la película

  • Calidad: WEBDL
  • Audio: Ingles AC3 5.1 iTunes
  • Subtitulos: Español Latino SRT
  • Resolución: 1920x796p
  • Formato: MKV
  • Codec: H.264
  • Encoder: FGT
  • Mediainfo: Clic para Mostrar Datos Ver
  • Format                                   : Matroska
    Format version                           : Version 4 / Version 2
    File size                                : 4.15 GiB
    Duration                                 : 2 h 1 min
    Overall bit rate                         : 4 903 kb/s
    Encoded date                             : UTC 2018-10-30 20:14:35
    Writing application                      : mkvmerge v15.0.0 ('Duel with the Devil') 64-bit
    Writing library                          : libebml v1.3.5 + libmatroska v1.4.5

    Video
    ID                                       : 1
    Format                                   : AVC
    Format/Info                              : Advanced Video Codec
    Format profile                           : High@L4
    Format settings                          : CABAC / 5 Ref Frames
    Format settings, CABAC                   : Yes
    Format settings, RefFrames               : 5 frames
    Codec ID                                 : V_MPEG4/ISO/AVC
    Duration                                 : 2 h 1 min
    Bit rate                                 : 4 518 kb/s
    Width                                    : 1 920 pixels
    Height                                   : 796 pixels
    Display aspect ratio                     : 2.40:1
    Frame rate mode                          : Constant
    Frame rate                               : 23.976 FPS
    Color space                              : YUV
    Chroma subsampling                       : 4:2:0
    Bit depth                                : 8 bits
    Scan type                                : Progressive
    Bits/(Pixel*Frame)                       : 0.123
    Stream size                              : 3.82 GiB (92%)
    Language                                 : English
    Default                                  : Yes
    Forced                                   : No
    Color range                              : Limited
    Color primaries                          : BT.709
    Transfer characteristics                 : BT.709
    Matrix coefficients                      : BT.709

    Audio
    ID                                       : 2
    Format                                   : AC-3
    Format/Info                              : Audio Coding 3
    Format settings, Endianness              : Big
    Codec ID                                 : A_AC3
    Duration                                 : 2 h 0 min
    Bit rate mode                            : Constant
    Bit rate                                 : 384 kb/s
    Channel(s)                               : 6 channels
    Channel positions                        : Front: L C R, Side: L R, LFE
    Sampling rate                            : 48.0 kHz
    Frame rate                               : 31.250 FPS (1536 SPF)
    Bit depth                                : 16 bits
    Compression mode                         : Lossy
    Delay relative to video                  : -43 ms
    Stream size                              : 332 MiB (8%)
    Language                                 : English
    Service kind                             : Complete Main
    Default                                  : Yes
    Forced                                   : No

    Text
    ID                                       : 3
    Format                                   : UTF-8
    Codec ID                                 : S_TEXT/UTF8
    Codec ID/Info                            : UTF-8 Plain Text
    Duration                                 : 1 h 59 min
    Bit rate                                 : 34 b/s
    Count of elements                        : 1023
    Stream size                              : 30.1 KiB (0%)
    Language                                 : Spanish
    Default                                  : Yes
    Forced                                   : No

    Menu
    00:00:00.000                             : en:1
    00:06:49.034                             : en:2
    00:13:21.634                             : en:3
    00:16:42.459                             : en:4
    00:27:09.919                             : en:5
    00:34:04.458                             : en:6
    00:41:04.543                             : en:7
    00:47:07.613                             : en:8
    00:54:16.333                             : en:9
    01:02:16.813                             : en:10
    01:11:17.727                             : en:11
    01:18:38.125                             : en:12
    01:25:18.942                             : en:13
    01:31:39.238                             : en:14
    01:40:09.330                             : en:15
    01:52:13.720                             : en:16

     

  • Peso: 4.15 GiB

Sinopsis

Robert McCall (Denzel Washington) garantiza una justicia inquebrantable para los explotados y oprimidos, pero ¿cuánto de lejos llegará cuando se trate de alguien a quien ama? Secuela de The Equalizer (El protector) (2014).

Ficha técnica

Video trailer de la película

Enlaces de descarga

Rip de Bluray

Descargar El justiciero 2 (2018) WEB-DL 1080p Subtitulado




Aportes de DPeliculasHDmega la pass es:dpeliculashdmega.org Aportes de CinemaniaHD la pass es:cinemaniahdd.com
Guardado en : Acción , Crimen , Suspense

Películas relacionadas

  • La Monja (2018) Web-DL 1080p Latino

    2018
    La Monja (2018) Web-DL 1080p Latino

    5.0 1h 36m 2018

    Descargar La Monja (2018) Web-DL 1080p Latino, Mega, Google Drive. Cuando una joven monja se suicida...

    Director: Jody Blose

    Género: Misterio

    Actores: Tudor Munteanu

  • El Jefe de la Mafia: Gotti (2018) 1080p Latino

    2018
    El Jefe de la Mafia: Gotti (2018) 1080p Latino

    1.0 1h 50m 2018

    Descargar El Jefe de la Mafia: Gotti (2018) 1080p Latino, Mega, Google Drive. Biopic del famoso mafioso...

    Director: S. B. Weathersby

    Género: Crimen

    Actores: William DeMeo

  • Mision: Imposible 2 (2000) Full 1080p Latino

    2000
    Mision: Imposible 2 (2000) Full 1080p Latino

    3.0 2h 3m 2000

    Descargar Mision: Imposible 2 (2000) Full 1080p Latino, Mega, Google Drive. El agente especial Ethan...

    Director: William H. Burton Jr.

    Género: Acción

    Actores: William Mapother

  • Mision: Imposible 2 (2000) 1080p Latino

    2000
    Mision: Imposible 2 (2000) 1080p Latino

    1.0 2h 3m 2000

    Descargar Mision: Imposible 2 (2000) 1080p Latino, Mega, Google Drive. El agente especial Ethan Hunt...

    Director: William H. Burton Jr.

    Género: Acción

    Actores: William Mapother

  • Mision: Imposible (1996) Full 1080p Latino

    1996
    Mision: Imposible (1996) Full 1080p Latino

    3.7 1h 50m 1996

    Mission: Impossible (1996) Full 1080p Latino, Mega, Google Drive. Ethan Hunt es un superespía capaz...

    Director: Nick Moore

    Género: Acción

    Actores: Ving Rhames

Comentarios 2
  • Anibal - 31 octubre, 2018

    Muy buena peli, la subiran en plateado ?

    • dpelis - 05 noviembre, 2018

      cuando salga el bluray