El Justiciero 2 (2018) Full 1080p Latino

3.506 vistas
1 estrella2 estrellas3 estrellas4 estrellas5 estrellas (6 votos, promedio: 5,00 de 5)
Cargando…

Información de El Justiciero 2 (2018) Full 1080p Latino

Datos de la película

  • Calidad: Full 1080p
  • Audio: Español Latino AC3 5.1 BLURAY - Ingles DTS 5.1 BLURAY
  • Subtitulos: Español Latino PGS - Ingles PGS
  • Resolución: 1920x1080p
  • Formato: MKV
  • Codec: H.264
  • Encoder: CinefiloCool
  • Mediainfo: Clic para Mostrar Datos Ver
  • El Justiciero 2 (2018) Full 1080p Latino.mkv
    Format                      : Matroska
    Format version              : Version 4 / Version 2
    File size                   : 4.96 GiB
    Duration                    : 2 h 0 min
    Overall bit rate            : 5 873 kb/s
    Movie name                  : CinemaniaHDD.Net
    Encoded date                : UTC 2018-11-15 02:30:55
    Writing application         : mkvmerge v25.0.0 ('Prog Noir') 64-bit
    Writing library             : libebml v1.3.6 + libmatroska v1.4.9

    Video
    ID                          : 1
    Format                      : AVC
    Format/Info                 : Advanced Video Codec
    Format profile              : High@L4.1
    Format settings             : CABAC / 4 Ref Frames
    Format settings, CABAC      : Yes
    Format settings, RefFrames  : 4 frames
    Codec ID                    : V_MPEG4/ISO/AVC
    Duration                    : 2 h 0 min
    Bit rate                    : 3 698 kb/s
    Width                       : 1 920 pixels
    Height                      : 1 080 pixels
    Display aspect ratio        : 16:9
    Frame rate mode             : Constant
    Frame rate                  : 23.976 (24000/1001) FPS
    Color space                 : YUV
    Chroma subsampling          : 4:2:0
    Bit depth                   : 8 bits
    Scan type                   : Progressive
    Bits/(Pixel*Frame)          : 0.074
    Stream size                 : 3.12 GiB (63%)
    Title                       : Full HD1080p [Bluray]
    Writing library             : x264 core 155 r2893 b00bcaf
    Encoding settings           : cabac=1 / ref=4 / deblock=1:0:0 / analyse=0x3:0x133 / me=esa / subme=10 / psy=1 / psy_rd=1.00:0.00 / mixed_ref=1 / me_range=24 / chroma_me=1 / trellis=2 / 8x8dct=1 / cqm=0 / deadzone=21,11 / fast_pskip=1 / chroma_qp_offset=-2 / threads=34 / lookahead_threads=5 / sliced_threads=0 / nr=0 / decimate=1 / interlaced=0 / bluray_compat=0 / constrained_intra=0 / bframes=8 / b_pyramid=2 / b_adapt=2 / b_bias=0 / direct=3 / weightb=1 / open_gop=0 / weightp=2 / keyint=240 / keyint_min=24 / scenecut=40 / intra_refresh=0 / rc_lookahead=60 / rc=crf / mbtree=1 / crf=20.0 / qcomp=0.60 / qpmin=0 / qpmax=69 / qpstep=4 / vbv_maxrate=62500 / vbv_bufsize=78125 / crf_max=0.0 / nal_hrd=none / filler=0 / ip_ratio=1.40 / aq=1:1.00
    Default                     : Yes
    Forced                      : No
    Color range                 : Limited
    Color primaries             : BT.709
    Transfer characteristics    : BT.709
    Matrix coefficients         : BT.709

    Audio #1
    ID                          : 2
    Format                      : AC-3
    Format/Info                 : Audio Coding 3
    Format settings, Endianness : Big
    Codec ID                    : A_AC3
    Duration                    : 2 h 0 min
    Bit rate mode               : Constant
    Bit rate                    : 640 kb/s
    Channel(s)                  : 6 channels
    Channel positions           : Front: L C R, Side: L R, LFE
    Sampling rate               : 48.0 kHz
    Frame rate                  : 31.250 FPS (1536 SPF)
    Bit depth                   : 16 bits
    Compression mode            : Lossy
    Stream size                 : 554 MiB (11%)
    Title                       : AC3_5.1_Bluray_Esp
    Language                    : Spanish
    Service kind                : Complete Main
    Default                     : Yes
    Forced                      : Yes

    Audio #2
    ID                          : 3
    Format                      : DTS
    Format/Info                 : Digital Theater Systems
    Mode                        : 16
    Format settings, Endianness : Big
    Codec ID                    : A_DTS
    Duration                    : 2 h 0 min
    Bit rate mode               : Constant
    Bit rate                    : 1 509 kb/s
    Channel(s)                  : 6 channels
    Channel positions           : Front: L C R, Side: L R, LFE
    Sampling rate               : 48.0 kHz
    Frame rate                  : 93.750 FPS (512 SPF)
    Bit depth                   : 16 bits
    Compression mode            : Lossy
    Stream size                 : 1.27 GiB (26%)
    Title                       : DTS_5.1_Bluray_Eng
    Language                    : English
    Default                     : No
    Forced                      : No

    Text #1
    ID                          : 4
    Format                      : PGS
    Muxing mode                 : zlib
    Codec ID                    : S_HDMV/PGS
    Codec ID/Info               : Picture based subtitle format used on BDs/HD-DVDs
    Duration                    : 1 h 59 min
    Bit rate                    : 20.4 kb/s
    Count of elements           : 2046
    Stream size                 : 17.5 MiB (0%)
    Title                       : Sub_Esp [PGS]
    Language                    : Spanish
    Default                     : No
    Forced                      : No

    Text #2
    ID                          : 5
    Format                      : PGS
    Muxing mode                 : zlib
    Codec ID                    : S_HDMV/PGS
    Codec ID/Info               : Picture based subtitle format used on BDs/HD-DVDs
    Duration                    : 1 h 53 min
    Bit rate                    : 23.5 kb/s
    Count of elements           : 2078
    Stream size                 : 19.2 MiB (0%)
    Title                       : Sub_Eng [PGS]
    Language                    : English
    Default                     : No
    Forced                      : No

    Menu
    00:00:00.000                : :Chapter 1
    00:01:31.592                : :Chapter 2
    00:01:58.869                : :Chapter 3
    00:04:54.169                : :Chapter 4
    00:05:33.083                : :Chapter 5
    00:05:51.643                : :Chapter 6
    00:06:23.884                : :Chapter 7
    00:06:55.874                : :Chapter 8
    00:07:06.593                : :Chapter 9
    00:07:35.622                : :Chapter 10
    00:07:53.765                : :Chapter 11
    00:08:09.698                : :Chapter 12
    00:08:22.293                : :Chapter 13
    00:08:39.144                : :Chapter 14
    00:09:09.007                : :Chapter 15
    00:09:44.417                : :Chapter 16
    00:11:32.442                : :Chapter 17
    00:11:41.492                : :Chapter 18
    00:12:06.059                : :Chapter 19
    00:13:03.950                : :Chapter 20
    00:15:24.549                : :Chapter 21
    00:15:58.166                : :Chapter 22
    00:16:19.437                : :Chapter 23
    00:16:54.180                : :Chapter 24
    00:17:58.578                : :Chapter 25
    00:19:34.048                : :Chapter 26
    00:20:02.785                : :Chapter 27
    00:20:55.713                : :Chapter 28
    00:23:04.425                : :Chapter 29
    00:23:50.596                : :Chapter 30
    00:23:59.897                : :Chapter 31
    00:24:14.036                : :Chapter 32
    00:24:20.626                : :Chapter 33
    00:25:47.755                : :Chapter 34
    00:28:22.576                : :Chapter 35
    00:28:39.176                : :Chapter 36
    00:31:50.075                : :Chapter 37
    00:32:04.840                : :Chapter 38
    00:32:13.932                : :Chapter 39
    00:34:10.799                : :Chapter 40
    00:35:14.279                : :Chapter 41
    00:36:09.626                : :Chapter 42
    01:31:39.703                : :Chapter 43
    01:32:20.702                : :Chapter 44
    01:32:40.764                : :Chapter 45
    01:33:20.053                : :Chapter 46
    01:34:56.900                : :Chapter 47
    01:41:28.124                : :Chapter 48
    01:41:36.257                : :Chapter 49
    01:42:25.056                : :Chapter 50
    01:46:59.163                : :Chapter 51

  • Peso: 4.96 GiB

Sinopsis

Descargar El Justiciero 2 (2018) Full 1080p Latino, Mega, Google Drive. Robert McCall (Denzel Washington) garantiza una justicia inquebrantable para los explotados y oprimidos, pero ¿cuánto de lejos llegará cuando se trate de alguien a quien ama? Secuela de The Equalizer (El protector) (2014).

Ficha técnica

Video trailer de la película

Enlaces de descarga

Rip de Bluray

Descargar El Justiciero 2 (2018) Full 1080p Latino




Aportes de DPeliculasHDmega la pass es:dpeliculashdmega.org Aportes de CinemaniaHD la pass es:cinemaniahdd.com

Películas relacionadas

  • Matar o morir (2018) 1080p Subtitulado

    2018
    Matar o morir (2018) 1080p Subtitulado

    5.0 1h 41m 2018

    Descargar Matar o morir [Peppermint] (2018) 1080p Subtitulado, Mega, Google Drive. LRiley North (Jennifer...

    Director: Pierre Morel

    Género: Acción

    Actores: YaYa Gosselin

  • Ni en tus sueños (2010) Full 1080p Latino

    2010
    Ni en tus sueños (2010) Full 1080p Latino

    0.0 1h 44m 2010

    Descargar Ni en tus sueños (2010) Full 1080p Latino, Mega, Google Drive. Kirk (Jay Baruchel, "Tropic...

    Director: Richard L. Fox

    Género: Comedia

    Actores: Yan Xi

  • La Chica de La Capa Roja (2011) Full 1080p Latino

    2011
    La Chica de La Capa Roja (2011) Full 1080p Latino

    4.7 1h 40m 2011

    Descargar La Chica de La Capa Roja (2011) Full 1080p Latino, Mega, Google Drive. La joven Valerie se...

    Director: Kimi Webber

    Género: Fantasía

    Actores: Virginia Madsen

  • La Chica de La Capa Roja (2011) 1080p Latino

    2011
    La Chica de La Capa Roja (2011) 1080p Latino

    0.0 1h 40m 2011

    Descargar La Chica de La Capa Roja (2011) 1080p Latino, Mega, Google Drive. La joven Valerie se encuentra...

    Director: Kimi Webber

    Género: Fantasía

    Actores: Virginia Madsen

  • Soy el número cuatro (2011) 1080p Latino

    2011
    Soy el número cuatro (2011) 1080p Latino

    0.0 1h 42m 2011

    Descargar Soy el número cuatro (2011) 1080p Latino, Mega, Google Drive. Aunque tenga la apariencia de...

    Director: D.J. Caruso

    Género: Acción

    Actores: Zoe Simek

Comentarios 3
  • Edgardo Mendez - 16 noviembre, 2018

    Un cordial saludo, les informo que este dia 15 nov. 2018 he realizado 3 intentos de descargar el Equalizador 2 por medio de Google Drive y en los 3 intentos me dice esperar 59 minutos sera que esta saturada la descarga?

    • dpelis - 16 noviembre, 2018

      use la descarga por torrent

  • ocpgaiden - 15 noviembre, 2018

    excelente pelicula, gracias y saludos