El Justiciero 2 (2018) 1080p Latino

1.969 vistas
1 estrella2 estrellas3 estrellas4 estrellas5 estrellas (2 votos, promedio: 2,50 de 5)
Cargando…

Información de El Justiciero 2 (2018) 1080p Latino

Datos de la película

  • Calidad: 1080p
  • Audio: Español Latino AC3 5.1 BLURAY - Ingles AC3 5.1 BLURAY
  • Subtitulos: Español Latino SRT - Ingles SRT
  • Resolución: 1920x804p
  • Formato: MKV
  • Codec: H.264
  • Encoder: CinefiloCool
  • Mediainfo: Clic para Mostrar Datos Ver
  • El Justiciero 2 (2018) 1080p Latino.mkv
    Format                      : Matroska
    Format version              : Version 4 / Version 2
    File size                   : 3.71 GiB
    Duration                    : 2 h 0 min
    Overall bit rate            : 4 397 kb/s
    Movie name                  : CinemaniaHDD.Net
    Encoded date                : UTC 2018-11-14 03:26:05 / UTC 2018-11-12T22:03:57Z
    Writing application         : mkvmerge v25.0.0 ('Prog Noir') 64-bit
    Writing library             : libebml v1.3.6 + libmatroska v1.4.9 / Lavf57.7.2

    Video
    ID                          : 1
    Format                      : AVC
    Format/Info                 : Advanced Video Codec
    Format profile              : High@L4.1
    Format settings             : CABAC / 5 Ref Frames
    Format settings, CABAC      : Yes
    Format settings, RefFrames  : 5 frames
    Codec ID                    : V_MPEG4/ISO/AVC
    Duration                    : 2 h 0 min
    Bit rate                    : 3 500 kb/s
    Width                       : 1 920 pixels
    Height                      : 804 pixels
    Display aspect ratio        : 2.40:1
    Frame rate mode             : Constant
    Frame rate                  : 23.976 (24000/1001) FPS
    Color space                 : YUV
    Chroma subsampling          : 4:2:0
    Bit depth                   : 8 bits
    Scan type                   : Progressive
    Bits/(Pixel*Frame)          : 0.095
    Stream size                 : 2.88 GiB (78%)
    Title                       : HD1080p [Bluray]
    Writing library             : x264 core 155 r2893 b00bcaf
    Encoding settings           : cabac=1 / ref=5 / deblock=1:0:0 / analyse=0x3:0x133 / me=umh / subme=9 / psy=1 / psy_rd=1.00:0.00 / mixed_ref=1 / me_range=16 / chroma_me=1 / trellis=2 / 8x8dct=1 / cqm=0 / deadzone=21,11 / fast_pskip=1 / chroma_qp_offset=-2 / threads=25 / lookahead_threads=2 / sliced_threads=0 / nr=0 / decimate=1 / interlaced=0 / bluray_compat=0 / constrained_intra=0 / bframes=3 / b_pyramid=2 / b_adapt=2 / b_bias=0 / direct=3 / weightb=1 / open_gop=0 / weightp=2 / keyint=240 / keyint_min=24 / scenecut=40 / intra_refresh=0 / rc_lookahead=60 / rc=2pass / mbtree=1 / bitrate=3500 / ratetol=1.0 / qcomp=0.60 / qpmin=0 / qpmax=69 / qpstep=4 / cplxblur=20.0 / qblur=0.5 / vbv_maxrate=62500 / vbv_bufsize=78125 / nal_hrd=none / filler=0 / ip_ratio=1.40 / aq=1:1.00
    Default                     : Yes
    Forced                      : No
    Color range                 : Limited
    Color primaries             : BT.709
    Transfer characteristics    : BT.709
    Matrix coefficients         : BT.709
    Statistics Tags Issue       : mkvmerge v25.0.0 ('Prog Noir') 64-bit 2018-11-14 03:26:05 / mkvmerge v25.0.0 ('Prog Noir') 64-bit 2018-11-14 03:26:05 / UTC 2018-11-12T22:03:57Z
    FromStats_BitRate           : 3498581
    FromStats_Duration          : 02:00:57.250000000
    FromStats_FrameCount        : 174000
    FromStats_StreamSize        : 3173760236

    Audio #1
    ID                          : 2
    Format                      : AC-3
    Format/Info                 : Audio Coding 3
    Format settings, Endianness : Big
    Codec ID                    : A_AC3
    Duration                    : 2 h 0 min
    Bit rate mode               : Constant
    Bit rate                    : 448 kb/s
    Channel(s)                  : 6 channels
    Channel positions           : Front: L C R, Side: L R, LFE
    Sampling rate               : 48.0 kHz
    Frame rate                  : 31.250 FPS (1536 SPF)
    Bit depth                   : 16 bits
    Compression mode            : Lossy
    Delay relative to video     : -5 ms
    Stream size                 : 388 MiB (10%)
    Title                       : AC3_5.1_Bluray_Esp
    Language                    : Spanish
    Service kind                : Complete Main
    Default                     : Yes
    Forced                      : Yes
    Statistics Tags Issue       : mkvmerge v25.0.0 ('Prog Noir') 64-bit 2018-11-14 03:26:05 / mkvmerge v25.0.0 ('Prog Noir') 64-bit 2018-11-14 03:26:05 / UTC 2018-11-12T22:03:57Z
    FromStats_BitRate           : 448000
    FromStats_Duration          : 02:00:57.312000000
    FromStats_FrameCount        : 226791
    FromStats_StreamSize        : 406409472

    Audio #2
    ID                          : 3
    Format                      : AC-3
    Format/Info                 : Audio Coding 3
    Format settings, Endianness : Big
    Codec ID                    : A_AC3
    Duration                    : 2 h 0 min
    Bit rate mode               : Constant
    Bit rate                    : 448 kb/s
    Channel(s)                  : 6 channels
    Channel positions           : Front: L C R, Side: L R, LFE
    Sampling rate               : 48.0 kHz
    Frame rate                  : 31.250 FPS (1536 SPF)
    Bit depth                   : 16 bits
    Compression mode            : Lossy
    Stream size                 : 388 MiB (10%)
    Title                       : AC3_5.1_Bluray_Eng
    Language                    : English
    Service kind                : Complete Main
    Default                     : No
    Forced                      : No
    Statistics Tags Issue       : mkvmerge v25.0.0 ('Prog Noir') 64-bit 2018-11-14 03:26:05 / mkvmerge v25.0.0 ('Prog Noir') 64-bit 2018-11-14 03:26:05 / UTC 2018-11-12T22:03:57Z
    FromStats_BitRate           : 448000
    FromStats_Duration          : 02:00:57.248000000
    FromStats_FrameCount        : 226789
    FromStats_StreamSize        : 406405888

    Text #1
    ID                          : 4
    Format                      : UTF-8
    Codec ID                    : S_TEXT/UTF8
    Codec ID/Info               : UTF-8 Plain Text
    Title                       : Sub_Forzados
    Language                    : Spanish
    Default                     : Yes
    Forced                      : Yes
    Statistics Tags Issue       : mkvmerge v25.0.0 ('Prog Noir') 64-bit 2018-11-14 03:26:05 / mkvmerge v25.0.0 ('Prog Noir') 64-bit 2018-11-14 03:26:05 / UTC 2018-11-12T22:03:57Z
    FromStats_BitRate           : 0
    FromStats_Duration          : 01:59:57.607000000
    FromStats_FrameCount        : 32
    FromStats_StreamSize        : 743

    Text #2
    ID                          : 5
    Format                      : UTF-8
    Codec ID                    : S_TEXT/UTF8
    Codec ID/Info               : UTF-8 Plain Text
    Title                       : Sub_Esp
    Language                    : Spanish
    Default                     : No
    Forced                      : No
    Statistics Tags Issue       : mkvmerge v25.0.0 ('Prog Noir') 64-bit 2018-11-14 03:26:05 / mkvmerge v25.0.0 ('Prog Noir') 64-bit 2018-11-14 03:26:05 / UTC 2018-11-12T22:03:57Z
    FromStats_BitRate           : 34
    FromStats_Duration          : 01:59:57.614000000
    FromStats_FrameCount        : 1023
    FromStats_StreamSize        : 30829

    Text #3
    ID                          : 6
    Format                      : UTF-8
    Codec ID                    : S_TEXT/UTF8
    Codec ID/Info               : UTF-8 Plain Text
    Title                       : Sub_Eng
    Language                    : English
    Default                     : No
    Forced                      : No
    Statistics Tags Issue       : mkvmerge v25.0.0 ('Prog Noir') 64-bit 2018-11-14 03:26:05 / mkvmerge v25.0.0 ('Prog Noir') 64-bit 2018-11-14 03:26:05 / UTC 2018-11-12T22:03:57Z
    FromStats_BitRate           : 40
    FromStats_Duration          : 01:52:17.468000000
    FromStats_FrameCount        : 1283
    FromStats_StreamSize        : 34297

    Menu
    00:00:00.000                : :Chapter 1
    00:01:31.592                : :Chapter 2
    00:01:58.869                : :Chapter 3
    00:04:54.169                : :Chapter 4
    00:05:33.083                : :Chapter 5
    00:05:51.643                : :Chapter 6
    00:06:23.884                : :Chapter 7
    00:06:55.874                : :Chapter 8
    00:07:06.593                : :Chapter 9
    00:07:35.622                : :Chapter 10
    00:07:53.765                : :Chapter 11
    00:08:09.698                : :Chapter 12
    00:08:22.293                : :Chapter 13
    00:08:39.144                : :Chapter 14
    00:09:09.007                : :Chapter 15
    00:09:44.417                : :Chapter 16
    00:11:32.442                : :Chapter 17
    00:11:41.492                : :Chapter 18
    00:12:06.059                : :Chapter 19
    00:13:03.950                : :Chapter 20
    00:15:24.549                : :Chapter 21
    00:15:58.166                : :Chapter 22
    00:16:19.437                : :Chapter 23
    00:16:54.180                : :Chapter 24
    00:17:58.578                : :Chapter 25
    00:19:34.048                : :Chapter 26
    00:20:02.785                : :Chapter 27
    00:20:55.713                : :Chapter 28
    00:23:04.425                : :Chapter 29
    00:23:50.596                : :Chapter 30
    00:23:59.897                : :Chapter 31
    00:24:14.036                : :Chapter 32
    00:24:20.626                : :Chapter 33
    00:25:47.755                : :Chapter 34
    00:28:22.576                : :Chapter 35
    00:28:39.176                : :Chapter 36
    00:31:50.075                : :Chapter 37
    00:32:04.840                : :Chapter 38
    00:32:13.932                : :Chapter 39
    00:34:10.799                : :Chapter 40
    00:35:14.279                : :Chapter 41
    00:36:09.626                : :Chapter 42
    01:31:39.703                : :Chapter 43
    01:32:20.702                : :Chapter 44
    01:32:40.764                : :Chapter 45
    01:33:20.053                : :Chapter 46
    01:34:56.900                : :Chapter 47
    01:41:28.124                : :Chapter 48
    01:41:36.257                : :Chapter 49
    01:42:25.056                : :Chapter 50
    01:46:59.163                : :Chapter 51

  • Peso: 3.71 GiB

Sinopsis

Descargar El Justiciero 2 (2018) 1080p Latino, Mega, Google Drive. Robert McCall (Denzel Washington) garantiza una justicia inquebrantable para los explotados y oprimidos, pero ¿cuánto de lejos llegará cuando se trate de alguien a quien ama? Secuela de The Equalizer (El protector) (2014).

Ficha técnica

Video trailer de la película

Enlaces de descarga

Rip de Bluray

Descargar El Justiciero 2 (2018) 1080p Latino




Aportes de DPeliculasHDmega la pass es:dpeliculashdmega.org Aportes de CinemaniaHD la pass es:cinemaniahdd.com
Guardado en : Acción , Crimen , HD 1080p , Suspense

Películas relacionadas

  • Godzilla (2014) 1080p Latino

    2014
    Godzilla (2014) 1080p Latino

    0.0 2h 3m 2014

    Descargar Godzilla (2014) 1080p Latino, Mega, Google Drive, Torrent. Gareth Edwards dirige este "reboot",...

    Director: Jessica Clothier

    Género: Acción

    Actores: Yuki Morita

  • Godzilla (2014) Full 1080p Latino

    2014
    Godzilla (2014) Full 1080p Latino

    4.2 2h 3m 2014

    Descargar Godzilla (2014) Full 1080p Latino, Mega, Google Drive, Torrent. Gareth Edwards dirige este...

    Director: Jessica Clothier

    Género: Acción

    Actores: Yuki Morita

  • Un pequeño favor (2018) Full 1080p Latino

    2018
    Un pequeño favor (2018) Full 1080p Latino

    5.0 1h 57m 2018

    Descargar Un pequeño favor (2018) Full 1080p Latino, Mega, Google Drive, Torrent. Stephanie es una joven...

    Director: Paul Feig

    Género: Crimen

    Actores: Zach Smadu

Comentarios 0