El Camino De Regreso (2020) PLACEBO Full HD 1080p Latino

71 vistas
1 estrella2 estrellas3 estrellas4 estrellas5 estrellas (Ninguna valoración todavía)
Cargando...

Información de El Camino De Regreso (2020) PLACEBO Full HD 1080p Latino

Datos de la película

  • Calidad: Full 1080p
  • Audio: Español Latino AC3 2.0 WEB-DL - Ingles AC3 5.1 BLURAY
  • Subtitulos: Español Latino SRT- FORZADOS SRT
  • Resolución: 1920x1080p
  • Formato: MKV
  • Codec: H.264
  • Encoder: Melkor
  • Mediainfo: Clic para Mostrar Datos Ver
  • El Camino De Regreso (2020) PLACEBO Full HD 1080p Latino.mkv
    Format                      : Matroska
    Format version              : Version 4
    File size                   : 8.15 GiB
    Duration                    : 1 h 48 min
    Overall bit rate            : 10.8 Mb/s
    Movie name                  : The Way Back (2020) CinemaniaHDD.Net
    Encoded date                : UTC 2021-01-15 05:15:48
    Writing application         : mkvmerge v51.0.0 ('I Wish') 64-bit
    Writing library             : libebml v1.4.0 + libmatroska v1.6.2
    Attachments                 : CINEMANIAHD.png

    Video
    ID                          : 1
    Format                      : AVC
    Format/Info                 : Advanced Video Codec
    Format profile              : High@L4.1
    Format settings             : CABAC / 4 Ref Frames
    Format settings, CABAC      : Yes
    Format settings, Reference  : 4 frames
    Codec ID                    : V_MPEG4/ISO/AVC
    Duration                    : 1 h 48 min
    Bit rate                    : 9 863 kb/s
    Width                       : 1 920 pixels
    Height                      : 1 080 pixels
    Display aspect ratio        : 16:9
    Frame rate mode             : Constant
    Frame rate                  : 23.976 (24000/1001) FPS
    Color space                 : YUV
    Chroma subsampling          : 4:2:0
    Bit depth                   : 8 bits
    Scan type                   : Progressive
    Bits/(Pixel*Frame)          : 0.198
    Stream size                 : 7.47 GiB (92%)
    Title                       : Full HD1080p [CinemaniaHDD]
    Writing library             : x264 core 157 r2935 545de2f
    Encoding settings           : cabac=1 / ref=4 / deblock=1:0:0 / analyse=0x3:0x133 / me=tesa / subme=11 / psy=1 / psy_rd=1.00:0.00 / mixed_ref=1 / me_range=24 / chroma_me=1 / trellis=2 / 8x8dct=1 / cqm=0 / deadzone=21,11 / fast_pskip=0 / chroma_qp_offset=-2 / threads=24 / lookahead_threads=6 / sliced_threads=0 / nr=0 / decimate=1 / interlaced=0 / bluray_compat=0 / constrained_intra=0 / bframes=16 / b_pyramid=2 / b_adapt=2 / b_bias=0 / direct=3 / weightb=1 / open_gop=0 / weightp=2 / keyint=240 / keyint_min=24 / scenecut=40 / intra_refresh=0 / rc_lookahead=60 / rc=crf / mbtree=1 / crf=20.0 / qcomp=0.60 / qpmin=0 / qpmax=69 / qpstep=4 / vbv_maxrate=62500 / vbv_bufsize=78125 / crf_max=0.0 / nal_hrd=none / filler=0 / ip_ratio=1.40 / aq=1:1.00
    Default                     : Yes
    Forced                      : Yes
    Color range                 : Limited
    Color primaries             : BT.709
    Transfer characteristics    : BT.709
    Matrix coefficients         : BT.709

    Audio #1
    ID                          : 2
    Format                      : AC-3
    Format/Info                 : Audio Coding 3
    Commercial name             : Dolby Digital
    Codec ID                    : A_AC3
    Duration                    : 1 h 48 min
    Bit rate mode               : Constant
    Bit rate                    : 256 kb/s
    Channel(s)                  : 2 channels
    Channel layout              : L R
    Sampling rate               : 48.0 kHz
    Frame rate                  : 31.250 FPS (1536 SPF)
    Compression mode            : Lossy
    Stream size                 : 199 MiB (2%)
    Title                       : Español Latino [CinemaniaHDD]
    Language                    : Spanish
    Service kind                : Complete Main
    Default                     : Yes
    Forced                      : Yes

    Audio #2
    ID                          : 3
    ID in the original source m : 4352 (0x1100)
    Format                      : AC-3
    Format/Info                 : Audio Coding 3
    Commercial name             : Dolby Digital
    Codec ID                    : A_AC3
    Duration                    : 1 h 48 min
    Bit rate mode               : Constant
    Bit rate                    : 640 kb/s
    Channel(s)                  : 6 channels
    Channel layout              : L R C LFE Ls Rs
    Sampling rate               : 48.0 kHz
    Frame rate                  : 31.250 FPS (1536 SPF)
    Compression mode            : Lossy
    Stream size                 : 496 MiB (6%)
    Title                       : Ingles AC3 [CinemaniaHDD]
    Language                    : English
    Service kind                : Complete Main
    Default                     : No
    Forced                      : No
    Original source medium      : Blu-ray

    Text #1
    ID                          : 4
    Format                      : UTF-8
    Codec ID                    : S_TEXT/UTF8
    Codec ID/Info               : UTF-8 Plain Text
    Duration                    : 47 min 52 s
    Bit rate                    : 1 b/s
    Count of elements           : 11
    Stream size                 : 434 Bytes (0%)
    Title                       : Forzados-SRT [CinemaniaHDD]
    Language                    : Spanish
    Default                     : Yes
    Forced                      : Yes

    Text #2
    ID                          : 5
    Format                      : UTF-8
    Codec ID                    : S_TEXT/UTF8
    Codec ID/Info               : UTF-8 Plain Text
    Duration                    : 1 h 39 min
    Bit rate                    : 57 b/s
    Count of elements           : 1511
    Stream size                 : 42.0 KiB (0%)
    Title                       : Español-SRT [CinemaniaHDD]
    Language                    : Spanish
    Default                     : No
    Forced                      : No

    Text #3
    ID                          : 6
    Format                      : UTF-8
    Codec ID                    : S_TEXT/UTF8
    Codec ID/Info               : UTF-8 Plain Text
    Duration                    : 1 h 39 min
    Bit rate                    : 69 b/s
    Count of elements           : 1561
    Stream size                 : 50.3 KiB (0%)
    Title                       : Ingles-SRT [CinemaniaHDD]
    Language                    : Spanish
    Default                     : No
    Forced                      : No

    Menu
    00:00:00.000                : en:Chapter 01
    00:09:40.371                : en:Chapter 02
    00:15:53.786                : en:Chapter 03
    00:24:44.816                : en:Chapter 04
    00:31:35.101                : en:Chapter 05
    00:37:54.897                : en:Chapter 06
    00:45:01.073                : en:Chapter 07
    00:54:15.418                : en:Chapter 08
    01:04:14.851                : en:Chapter 09
    01:09:06.142                : en:Chapter 10
    01:17:57.464                : en:Chapter 11
    01:27:57.188                : en:Chapter 12
    01:33:17.508                : en:Chapter 13
    01:42:39.403                : en:Chapter 14

  • Peso: 8.15 GiB

Sinopsis

Descargar El Camino De Regreso (2020) PLACEBO Full HD 1080p Latino. Una antigua estrella del baloncesto caída en desgracia y sumido en el terrible mundo de las adicciones trata de volver al sendero correcto como entrenador de un equipo de instituto cuya mayor peculiaridad es estar compuesto por un variopinto grupo de estudiantes.

Ficha técnica

Video trailer de la película

Enlaces de descarga

Rip de Bluray

Descargar El Camino De Regreso (2020) PLACEBO Full HD 1080p Latino




Aportes de DPeliculasHDmega la pass es:dpeliculashdmega.org Aportes de CinemaniaHD la pass es:cinemaniahdd.com

Películas relacionadas

  • 100% Lobo (2020) PLACEBO Full HD 1080p Latino

    100% Lobo (2020) PLACEBO Full HD 1080p Latino

    2020
    100% Lobo (2020) PLACEBO Full HD 1080p Latino

    0.0 1h 25m 2020

    Descargar 100% Lobo (2020) PLACEBO Full HD 1080p Latino. Freddy Lupin pertenece a una orgullosa familia...

    Director: Alexs Stadermann

    Género: Animación

    Actores: Samara Weaving

  • Accusations & Lies (2019) Star WEB-DL 1080p Latino

    Accusations & Lies (2019) Star WEB-DL 1080p Latino

    2019
    Accusations & Lies (2019) Star WEB-DL 1080p Latino

    5.0 1h 25m 2019

    Liz y Andrew llegan a Hawaii para celebrar su décimo aniversario de boda. Cuando Liz despierta a la...

    Director: Michael Feifer

    Género: Drama

    Actores: Philip Boyd

  • WandaVision (2021) temporada 1 WEB-DL 1080p Latino

    WandaVision (2021) temporada 1 WEB-DL 1080p Latino

    2021
    WandaVision (2021) temporada 1 WEB-DL 1080p Latino

    5.0 0h 0m 2021

    Descargar WandaVision (2021) temporada 1 WEB-DL 1080p Latino. “WandaVision” de Marvel Studios combina...

    Director: Jac Schaeffer

    Género: Drama

    Actores: Teyonah Parris

  • Sentinelle (2021) NF WEB-DL 1080p Latino

    Sentinelle (2021) NF WEB-DL 1080p Latino

    2021
    Sentinelle (2021) NF WEB-DL 1080p Latino

    5.0 1h 20m 2021

    De regreso en su casa tras una traumática misión de combate, una soldado altamente capacitada emplea...

    Director: Julien Leclercq

    Género: Acción

    Actores: Olga Kurylenko

El Camino De Regreso (2020) PLACEBO Full HD 1080p Latino pelicula full hd, El Camino De Regreso (2020) PLACEBO Full HD 1080p Latino mega latino, El Camino De Regreso (2020) PLACEBO Full HD 1080p Latino 4k latino, El Camino De Regreso (2020) PLACEBO Full HD 1080p Latino pelicula completa, El Camino De Regreso (2020) PLACEBO Full HD 1080p Latino descargar gratis, descargar El Camino De Regreso (2020) PLACEBO Full HD 1080p Latino pelicula latino, El Camino De Regreso (2020) PLACEBO Full HD 1080p Latino 1 link mega, El Camino De Regreso (2020) PLACEBO Full HD 1080p Latino 1 link google drive, El Camino De Regreso (2020) PLACEBO Full HD 1080p Latino hd 1080p latino.
Comentarios 0