×

¿Problemas para descargar con Mozilla, EDGE? Deshabilita la opción "Abrir vinculos en una pestaña nueva" tal como lo muestra ésta imagen.

Dumbo (1941) REMUX 1080p Latino – CMHDD

294 vistas

Información de Dumbo (1941) REMUX 1080p Latino – CMHDD

Datos de la película

  • Calidad: Full 1080p
  • Audio: Español Latino AC3 5.1 BLURAY - Ingles DTS-HD Master 7.1 BLURAY
  • Subtitulos: Español Latino SRT- FORZADOS SRT
  • Resolución: 1920x1080p
  • Formato: MKV
  • Codec: H.264
  • Encoder: Dracarys
  • Mediainfo: Clic para Mostrar Datos Ver
  • Format                      : Matroska
    Format version              : Version 4
    File size                   : 12.8 GiB
    Duration                    : 1 h 3 min
    Overall bit rate mode       : Variable
    Overall bit rate            : 28.6 Mb/s
    Movie name                  : Dumbo (1941) REMUX 1080p Latino - CMHDD
    Encoded date                : UTC 2020-08-08 00:44:16
    Writing application         : mkvmerge v46.0.0 ('No Deeper Escape') 64-bit
    Writing library             : libebml v1.3.10 + libmatroska v1.5.2

    Video
    ID                          : 1
    Format                      : AVC
    Format/Info                 : Advanced Video Codec
    Format profile              : High@L4.1
    Format settings             : CABAC / 3 Ref Frames
    Format settings, CABAC      : Yes
    Format settings, Reference  : 3 frames
    Format settings, GOP        : M=3, N=24
    Codec ID                    : V_MPEG4/ISO/AVC
    Duration                    : 1 h 3 min
    Bit rate                    : 24.6 Mb/s
    Width                       : 1 920 pixels
    Height                      : 1 080 pixels
    Display aspect ratio        : 16:9
    Frame rate mode             : Constant
    Frame rate                  : 23.976 (24000/1001) FPS
    Color space                 : YUV
    Chroma subsampling          : 4:2:0
    Bit depth                   : 8 bits
    Scan type                   : Progressive
    Bits/(Pixel*Frame)          : 0.495
    Stream size                 : 11.0 GiB (86%)
    Language                    : English
    Default                     : Yes
    Forced                      : No

    Audio #1
    ID                          : 2
    Format                      : AC-3
    Format/Info                 : Audio Coding 3
    Commercial name             : Dolby Digital
    Codec ID                    : A_AC3
    Duration                    : 1 h 3 min
    Bit rate mode               : Constant
    Bit rate                    : 640 kb/s
    Channel(s)                  : 6 channels
    Channel layout              : L R C LFE Ls Rs
    Sampling rate               : 48.0 kHz
    Frame rate                  : 31.250 FPS (1536 SPF)
    Compression mode            : Lossy
    Stream size                 : 293 MiB (2%)
    Language                    : Spanish
    Service kind                : Complete Main
    Default                     : Yes
    Forced                      : No

    Audio #2
    ID                          : 3
    Format                      : DTS XLL
    Format/Info                 : Digital Theater Systems
    Commercial name             : DTS-HD Master Audio
    Codec ID                    : A_DTS
    Duration                    : 1 h 3 min
    Bit rate mode               : Variable
    Bit rate                    : 3 279 kb/s
    Channel(s)                  : 8 channels
    Channel layout              : C L R LFE Lb Rb Lss Rss
    Sampling rate               : 48.0 kHz
    Frame rate                  : 93.750 FPS (512 SPF)
    Bit depth                   : 24 bits
    Compression mode            : Lossless
    Stream size                 : 1.46 GiB (11%)
    Language                    : English
    Default                     : No
    Forced                      : No

    Text #1
    ID                          : 4
    Format                      : UTF-8
    Codec ID                    : S_TEXT/UTF8
    Codec ID/Info               : UTF-8 Plain Text
    Duration                    : 1 h 0 min
    Bit rate                    : 0 b/s
    Count of elements           : 22
    Stream size                 : 440 Bytes (0%)
    Title                       : Forzados
    Language                    : Spanish
    Default                     : Yes
    Forced                      : No

    Text #2
    ID                          : 5
    Format                      : UTF-8
    Codec ID                    : S_TEXT/UTF8
    Codec ID/Info               : UTF-8 Plain Text
    Duration                    : 1 h 2 min
    Bit rate                    : 44 b/s
    Count of elements           : 644
    Stream size                 : 20.2 KiB (0%)
    Language                    : Spanish
    Default                     : No
    Forced                      : No

    Menu
    00:00:00.000                : en:Chapter 1
    00:01:19.871                : en:Chapter 2
    00:04:14.921                : en:Chapter 3
    00:06:34.352                : en:Chapter 4
    00:12:49.727                : en:Chapter 5
    00:17:01.437                : en:Chapter 6
    00:20:08.040                : en:Chapter 7
    00:23:32.703                : en:Chapter 8
    00:28:30.542                : en:Chapter 9
    00:35:19.534                : en:Chapter 10
    00:38:11.915                : en:Chapter 11
    00:42:34.510                : en:Chapter 12
    00:46:07.723                : en:Chapter 13
    00:51:00.683                : en:Chapter 14
    00:54:42.279                : en:Chapter 15
    00:58:40.350                : en:Chapter 16
    01:00:19.449                : en:Chapter 17

  • Peso: 12.8 GiB

Sinopsis

Las cigüeñas llegan, como todos los años, hasta un pintoresco circo para repartir los bebés a sus respectivas mamás. La señora Dumbo, una elefanta, descubre que su bebé tiene unas orejas enormes; todas sus compañeras se ríen de él, pero la señora Dumbo lo defiende siempre, hasta el punto de ser encerrada por enfrentarse a todo aquel que se mofe de su retoño. El pequeño Dumbo, maltratado y ridiculizado por todos sus compañeros, sólo cuenta con la ayuda de un minúsculo ratoncito llamado Timothy, que decide hacer de él una estrella del circo.

Ficha técnica

Video trailer de la película

Enlaces de descarga

Rip de Bluray

Descargar Dumbo (1941) REMUX 1080p Latino – CMHDD




Aportes de DPeliculasHDmega la pass es:dpeliculashdmega.org Aportes de CinemaniaHD la pass es:cinemaniahdd.com
Guardado en : Animación , Familia

Películas relacionadas

descargar Dumbo (1941) REMUX 1080p Latino – CMHDD Full 1080p 1080p gratis, Dumbo (1941) REMUX 1080p Latino – CMHDD Full 1080p mega 1 link, Dumbo (1941) REMUX 1080p Latino – CMHDD Full 1080p pelicula completa, descargar Dumbo (1941) REMUX 1080p Latino – CMHDD Full 1080p gratis en mega.

Dumbo (1941) REMUX 1080p Latino – CMHDD pelicula full hd, Dumbo (1941) REMUX 1080p Latino – CMHDD mega latino, Dumbo (1941) REMUX 1080p Latino – CMHDD 4k latino, Dumbo (1941) REMUX 1080p Latino – CMHDD pelicula completa, Dumbo (1941) REMUX 1080p Latino – CMHDD descargar gratis, descargar Dumbo (1941) REMUX 1080p Latino – CMHDD pelicula latino, Dumbo (1941) REMUX 1080p Latino – CMHDD 1 link mega, Dumbo (1941) REMUX 1080p Latino – CMHDD 1 link google drive, Dumbo (1941) REMUX 1080p Latino – CMHDD hd 1080p latino.
Comentarios 0