Dragons: Rescue Riders: Huttsgalor Holiday (2020) NF WEB-DL 1080p Latino

160 vistas
1 estrella2 estrellas3 estrellas4 estrellas5 estrellas (1 votos, promedio: 5,00 de 5)
Cargando...

Información de Dragons: Rescue Riders: Huttsgalor Holiday (2020) NF WEB-DL 1080p Latino

Datos de la película

  • Calidad: WEBDL
  • Audio: Español Latino AC3 5.1 Netflix - Ingles AC3 5.1 Netflix
  • Subtitulos: Español Latino SRT- FORZADOS SRT
  • Resolución: 1920x1080
  • Formato: MKV
  • Codec: H.264
  • Encoder: cinemaniahdd
  • Mediainfo: Clic para Mostrar Datos Ver
  • Dragons. Rescue Riders, Huttsgalor Holiday (2020) NF WEB-DL 1080p Latino [CNMNHDD].mkv
    Format                      : Matroska
    Format version              : Version 4
    File size                   : 1.79 GiB
    Duration                    : 46 min 20 s
    Overall bit rate mode       : Variable
    Overall bit rate            : 5 546 kb/s
    Movie name                  : Dragons. Rescue Riders, Huttsgalor Holiday (2020) - CinemaniaHDD.Net
    Encoded date                : UTC 2020-11-24 23:08:57
    Writing application         : mkvmerge v51.0.0 ('I Wish') 64-bit
    Writing library             : libebml v1.4.0 + libmatroska v1.6.2

    Video
    ID                          : 1
    Format                      : AVC
    Format/Info                 : Advanced Video Codec
    Format profile              : Main@L4
    Format settings             : CABAC / 3 Ref Frames
    Format settings, CABAC      : Yes
    Format settings, Reference  : 3 frames
    Codec ID                    : V_MPEG4/ISO/AVC
    Duration                    : 46 min 19 s
    Bit rate mode               : Variable
    Bit rate                    : 4 870 kb/s
    Maximum bit rate            : 7 305 kb/s
    Width                       : 1 920 pixels
    Height                      : 1 080 pixels
    Display aspect ratio        : 16:9
    Frame rate mode             : Constant
    Frame rate                  : 23.976 (24000/1001) FPS
    Color space                 : YUV
    Chroma subsampling          : 4:2:0
    Bit depth                   : 8 bits
    Scan type                   : Progressive
    Bits/(Pixel*Frame)          : 0.098
    Stream size                 : 1.54 GiB (86%)
    Title                       : CinemaniaHDD
    Writing library             : x264 core 148 r2722 1b0121b
    Encoding settings           : cabac=1 / ref=3 / deblock=1:0:0 / analyse=0x1:0x111 / me=umh / subme=10 / psy=1 / psy_rd=1.00:0.00 / mixed_ref=1 / me_range=24 / chroma_me=1 / trellis=2 / 8x8dct=0 / cqm=0 / deadzone=21,11 / fast_pskip=1 / chroma_qp_offset=-2 / threads=8 / lookahead_threads=1 / sliced_threads=0 / nr=0 / decimate=1 / interlaced=0 / bluray_compat=0 / stitchable=1 / constrained_intra=0 / bframes=2 / b_pyramid=0 / b_adapt=2 / b_bias=0 / direct=3 / weightb=1 / open_gop=0 / weightp=2 / keyint=250 / keyint_min=23 / scenecut=0 / intra_refresh=0 / rc_lookahead=48 / rc=2pass / mbtree=1 / bitrate=4870 / ratetol=1.0 / qcomp=0.50 / qpmin=6 / qpmax=51 / qpstep=4 / cplxblur=20.0 / qblur=0.5 / vbv_maxrate=7305 / vbv_bufsize=9740 / nal_hrd=vbr / filler=0 / ip_ratio=1.40 / aq=1:1.00
    Default                     : Yes
    Forced                      : No

    Audio #1
    ID                          : 2
    Format                      : AC-3
    Format/Info                 : Audio Coding 3
    Commercial name             : Dolby Digital
    Codec ID                    : A_AC3
    Duration                    : 46 min 20 s
    Bit rate mode               : Constant
    Bit rate                    : 384 kb/s
    Channel(s)                  : 6 channels
    Channel layout              : L R C LFE Ls Rs
    Sampling rate               : 48.0 kHz
    Frame rate                  : 31.250 FPS (1536 SPF)
    Compression mode            : Lossy
    Stream size                 : 127 MiB (7%)
    Title                       : Español latino [CinemaniaHDD]
    Language                    : Spanish
    Service kind                : Complete Main
    Default                     : Yes
    Forced                      : No

    Audio #2
    ID                          : 3
    Format                      : AC-3
    Format/Info                 : Audio Coding 3
    Commercial name             : Dolby Digital
    Codec ID                    : A_AC3
    Duration                    : 46 min 20 s
    Bit rate mode               : Constant
    Bit rate                    : 384 kb/s
    Channel(s)                  : 6 channels
    Channel layout              : L R C LFE Ls Rs
    Sampling rate               : 48.0 kHz
    Frame rate                  : 31.250 FPS (1536 SPF)
    Compression mode            : Lossy
    Stream size                 : 127 MiB (7%)
    Title                       : Inglés [CinemaniaHDD]
    Language                    : English
    Service kind                : Complete Main
    Default                     : No
    Forced                      : No

    Text #1
    ID                          : 4
    Format                      : UTF-8
    Codec ID                    : S_TEXT/UTF8
    Codec ID/Info               : UTF-8 Plain Text
    Duration                    : 45 min 5 s
    Bit rate                    : 0 b/s
    Count of elements           : 2
    Stream size                 : 55.0 Bytes (0%)
    Title                       : Forzados [CinemaniaHDD]
    Language                    : Spanish
    Default                     : Yes
    Forced                      : Yes

    Text #2
    ID                          : 5
    Format                      : UTF-8
    Codec ID                    : S_TEXT/UTF8
    Codec ID/Info               : UTF-8 Plain Text
    Duration                    : 45 min 5 s
    Bit rate                    : 67 b/s
    Count of elements           : 748
    Stream size                 : 22.2 KiB (0%)
    Title                       : Español latino [CinemaniaHDD]
    Language                    : Spanish
    Default                     : No
    Forced                      : No

    Text #3
    ID                          : 6
    Format                      : UTF-8
    Codec ID                    : S_TEXT/UTF8
    Codec ID/Info               : UTF-8 Plain Text
    Duration                    : 44 min 24 s
    Bit rate                    : 85 b/s
    Count of elements           : 899
    Stream size                 : 27.7 KiB (0%)
    Title                       : Inglés [CinemaniaHDD]
    Language                    : English
    Default                     : No
    Forced                      : No

  • Peso: 1.79 GiB

Sinopsis

La primera nevada marca el inicio de Odinyule, la fiesta vikinga de dar. Pero cuando el mal tiempo amenaza con cancelarlo todo, el Equipo de rescate entra en acción.

Ficha técnica

  • Titulo original: Dragons: Rescue Riders: Huttsgalor Holiday
  • Fecha de lanzamiento: 24-11-2020
  • Género: Animación, Familia, Netflix
  • Puntuación: 5.0 1 votos
  • Duración:
    0h 0m

Video trailer de la película

Enlaces de descarga

Rip de Bluray

Descargar Dragons: Rescue Riders: Huttsgalor Holiday (2020) NF WEB-DL 1080p Latino




Aportes de DPeliculasHDmega la pass es:dpeliculashdmega.org Aportes de CinemaniaHD la pass es:cinemaniahdd.com
Guardado en : Animación , Familia , Netflix

Películas relacionadas

  • Rick and Morty (2021) Temporada 5 AS WEB-DL 1080p Latino

    Rick and Morty (2021) Temporada 5 AS WEB-DL 1080p Latino

    2013
    Rick and Morty (2021) Temporada 5 AS WEB-DL 1080p Latino

    5.0 0h 22m 2013

    Comedia animada que narra las aventuras de un científico loco Rick Sánchez, que regresa después de...

    Director: Justin Roiland

    Género: Action & Adventure

    Actores: Spencer Grammer

  • Space Jam (1996) REMUX 1080p Latino – CMHDD

    Space Jam (1996) REMUX 1080p Latino – CMHDD

    1996
    Space Jam (1996) REMUX 1080p Latino – CMHDD

    0.0 1h 27m 1996

    Bugs Bunny y su equipo desafían a los Nerdlucks (un grupo de pequeños extraterrestres) a un partido...

    Director: Pamela Cederquist

    Género: Animación

    Actores: William G. Schilling

  • Blood Red Sky (2021) NF WEB-DL 1080p Latino

    Blood Red Sky (2021) NF WEB-DL 1080p Latino

    2021
    Blood Red Sky (2021) NF WEB-DL 1080p Latino

    5.0 2h 1m 2021

    Una mujer con una misteriosa enfermedad sanguínea se ve obligada a entrar en acción cuando un grupo...

    Director: Peter Thorwarth

    Género: Acción

    Actores: Wolfgang Michael

Dragons: Rescue Riders: Huttsgalor Holiday (2020) NF WEB-DL 1080p Latino pelicula full hd, Dragons: Rescue Riders: Huttsgalor Holiday (2020) NF WEB-DL 1080p Latino mega latino, Dragons: Rescue Riders: Huttsgalor Holiday (2020) NF WEB-DL 1080p Latino 4k latino, Dragons: Rescue Riders: Huttsgalor Holiday (2020) NF WEB-DL 1080p Latino pelicula completa, Dragons: Rescue Riders: Huttsgalor Holiday (2020) NF WEB-DL 1080p Latino descargar gratis, descargar Dragons: Rescue Riders: Huttsgalor Holiday (2020) NF WEB-DL 1080p Latino pelicula latino, Dragons: Rescue Riders: Huttsgalor Holiday (2020) NF WEB-DL 1080p Latino 1 link mega, Dragons: Rescue Riders: Huttsgalor Holiday (2020) NF WEB-DL 1080p Latino 1 link google drive, Dragons: Rescue Riders: Huttsgalor Holiday (2020) NF WEB-DL 1080p Latino hd 1080p latino.
Comentarios 0