×

¿Problemas para descargar con Mozilla, EDGE? Deshabilita la opción "Abrir vinculos en una pestaña nueva" tal como lo muestra ésta imagen.

Dragonheart: Vengeance (2020) REMUX 1080p Latino

522 vistas

Información de Dragonheart: Vengeance (2020) REMUX 1080p Latino

Datos de la película

  • Calidad: Full 1080p
  • Audio: Español Latino AC3 5.1 iTUNES - Ingles DTS 5.1 BLURAY
  • Subtitulos: Español Latino SRT- FORZADOS SRT
  • Resolución: 1920x1080
  • Formato: MKV
  • Codec: H.264
  • Encoder: cinemaniahdd
  • Mediainfo: Clic para Mostrar Datos Ver
  • Dragonheart Vengeance (2020) REMUX 1080p Latino.mkv
    Format                      : Matroska
    Format version              : Version 4
    File size                   : 26.0 GiB
    Duration                    : 1 h 36 min
    Overall bit rate mode       : Variable
    Overall bit rate            : 38.5 Mb/s
    Movie name                  : Dragonheart Vengeance (2020) - CinemaniaHDD.Net
    Encoded date                : UTC 2020-06-05 05:44:30
    Writing application         : mkvmerge v46.0.0 ('No Deeper Escape') 64-bit
    Writing library             : libebml v1.3.10 + libmatroska v1.5.2

    Video
    ID                          : 1
    Format                      : AVC
    Format/Info                 : Advanced Video Codec
    Format profile              : High@L4.1
    Format settings             : CABAC / 4 Ref Frames
    Format settings, CABAC      : Yes
    Format settings, Reference  : 4 frames
    Codec ID                    : V_MPEG4/ISO/AVC
    Duration                    : 1 h 36 min
    Bit rate mode               : Variable
    Bit rate                    : 34.5 Mb/s
    Maximum bit rate            : 38.6 Mb/s
    Width                       : 1 920 pixels
    Height                      : 1 080 pixels
    Display aspect ratio        : 16:9
    Frame rate mode             : Constant
    Frame rate                  : 23.976 (24000/1001) FPS
    Color space                 : YUV
    Chroma subsampling          : 4:2:0
    Bit depth                   : 8 bits
    Scan type                   : Progressive
    Bits/(Pixel*Frame)          : 0.694
    Stream size                 : 23.4 GiB (90%)
    Title                       : CinemaniaHDD
    Language                    : English
    Default                     : Yes
    Forced                      : No

    Audio #1
    ID                          : 2
    Format                      : AC-3
    Format/Info                 : Audio Coding 3
    Commercial name             : Dolby Digital
    Codec ID                    : A_AC3
    Duration                    : 1 h 36 min
    Bit rate mode               : Constant
    Bit rate                    : 384 kb/s
    Channel(s)                  : 6 channels
    Channel layout              : L R C LFE Ls Rs
    Sampling rate               : 48.0 kHz
    Frame rate                  : 31.250 FPS (1536 SPF)
    Compression mode            : Lossy
    Stream size                 : 266 MiB (1%)
    Title                       : Español latino [CinemaniaHDD]
    Language                    : Spanish
    Service kind                : Complete Main
    Default                     : Yes
    Forced                      : No

    Audio #2
    ID                          : 3
    Format                      : DTS XLL
    Format/Info                 : Digital Theater Systems
    Commercial name             : DTS-HD Master Audio
    Codec ID                    : A_DTS
    Duration                    : 1 h 36 min
    Bit rate mode               : Variable
    Bit rate                    : 3 562 kb/s
    Channel(s)                  : 6 channels
    Channel layout              : C L R Ls Rs LFE
    Sampling rate               : 48.0 kHz
    Frame rate                  : 93.750 FPS (512 SPF)
    Bit depth                   : 24 bits
    Compression mode            : Lossless
    Stream size                 : 2.41 GiB (9%)
    Title                       : Inglés [CinemaniaHDD]
    Language                    : English
    Default                     : No
    Forced                      : No

    Text #1
    ID                          : 4
    Format                      : UTF-8
    Codec ID                    : S_TEXT/UTF8
    Codec ID/Info               : UTF-8 Plain Text
    Duration                    : 59 min 9 s
    Bit rate                    : 0 b/s
    Count of elements           : 8
    Stream size                 : 98.0 Bytes (0%)
    Title                       : Forzados [CinemaniaHDD]
    Language                    : Spanish
    Default                     : Yes
    Forced                      : Yes

    Text #2
    ID                          : 5
    Format                      : UTF-8
    Codec ID                    : S_TEXT/UTF8
    Codec ID/Info               : UTF-8 Plain Text
    Duration                    : 1 h 36 min
    Bit rate                    : 48 b/s
    Count of elements           : 1283
    Stream size                 : 34.3 KiB (0%)
    Title                       : Español latino [CinemaniaHDD]
    Language                    : Spanish
    Default                     : No
    Forced                      : No

    Menu
    00:00:00.000                : en:Chapter 01
    00:05:33.416                : en:Chapter 02
    00:09:01.458                : en:Chapter 03
    00:13:01.656                : en:Chapter 04
    00:17:46.107                : en:Chapter 05
    00:21:59.443                : en:Chapter 06
    00:27:17.386                : en:Chapter 07
    00:34:52.299                : en:Chapter 08
    00:38:06.618                : en:Chapter 09
    00:42:08.943                : en:Chapter 10
    00:45:11.667                : en:Chapter 11
    00:51:19.702                : en:Chapter 12
    00:58:41.476                : en:Chapter 13
    01:03:53.038                : en:Chapter 14
    01:07:56.114                : en:Chapter 15
    01:12:40.189                : en:Chapter 16
    01:18:11.478                : en:Chapter 17
    01:24:32.734                : en:Chapter 18
    01:29:24.651                : en:Chapter 19
    01:32:25.874                : en:Chapter 20

     

  • Peso: 26.0 GiB

Sinopsis

Lukas (Jack Kane), está en búsqueda de venganza, y forma un trío casi imposible con una dragona lanza hielo (Helena Bonham Carter) y el intrépido mercenario (Joseph Millson).

Ficha técnica

  • Titulo original: Dragonheart: Vengeance
  • Fecha de lanzamiento: 04-02-2020 (United States of America)
  • Director: Ivan Silvestrini
  • Género: Fantasía, Remux

Video trailer de la película

Enlaces de descarga

Rip de Bluray

Descargar Dragonheart: Vengeance (2020) REMUX 1080p Latino




Aportes de DPeliculasHDmega la pass es:dpeliculashdmega.org Aportes de CinemaniaHD la pass es:cinemaniahdd.com Aportes recientes:cinemaniahdd.net
Guardado en : Fantasía , Remux

Películas relacionadas

  • The Bodyguard (1992) REMUX 1080p Latino-CMHDD

    The Bodyguard (1992) REMUX 1080p Latino-CMHDD

    1992
    The Bodyguard (1992) REMUX 1080p Latino-CMHDD

    2h 9m 1992

    Descargar The Bodyguard (1992) REMUX 1080p Latino-CMHDD. Una cantante famosa que recibe constantes cartas...

    Director: Mick Jackson

    Género: Acción

    Actores: Whitney Houston

  • One Day (2011) REMUX 1080p Latino-CMHDD

    One Day (2011) REMUX 1080p Latino-CMHDD

    2011
    One Day (2011) REMUX 1080p Latino-CMHDD

    1h 43m 2011

    Descargar One Day (2011) REMUX 1080p Latino-CMHDD. Emma y Dexter se conocen el día de su graduación...

    Director: Maj-Britt La Cour

    Género: Drama

    Actores: Ukweli Roach

  • Priscilla (2023) REMUX 1080p Latino

    Priscilla (2023) REMUX 1080p Latino

    2023
    Priscilla (2023) REMUX 1080p Latino

    1h 50m 2023

    Descargar Priscilla (2023) REMUX 1080p Latino. Cuando la adolescente Priscilla Beaulieu conoce a Elvis...

    Director: Sofia Coppola

    Género: Drama

    Actores: Tonia Venneri

  • Naturaleza Humana (2022) REMUX 1080p Latino

    Naturaleza Humana (2022) REMUX 1080p Latino

    2022
    Naturaleza Humana (2022) REMUX 1080p Latino

    1h 31m 2022

    Descargar Naturaleza Humana (2022) REMUX 1080p Latino. Una historia sobre la mayoría de edad contada...

    Director: Louie Gibson

    Género: Drama

    Actores: Tim Heidecker

descargar Dragonheart: Vengeance (2020) REMUX 1080p Latino Full 1080p 1080p gratis, Dragonheart: Vengeance (2020) REMUX 1080p Latino Full 1080p mega 1 link, Dragonheart: Vengeance (2020) REMUX 1080p Latino Full 1080p pelicula completa, descargar Dragonheart: Vengeance (2020) REMUX 1080p Latino Full 1080p gratis en mega.

Dragonheart: Vengeance (2020) REMUX 1080p Latino pelicula full hd, Dragonheart: Vengeance (2020) REMUX 1080p Latino mega latino, Dragonheart: Vengeance (2020) REMUX 1080p Latino 4k latino, Dragonheart: Vengeance (2020) REMUX 1080p Latino pelicula completa, Dragonheart: Vengeance (2020) REMUX 1080p Latino descargar gratis, descargar Dragonheart: Vengeance (2020) REMUX 1080p Latino pelicula latino, Dragonheart: Vengeance (2020) REMUX 1080p Latino 1 link mega, Dragonheart: Vengeance (2020) REMUX 1080p Latino 1 link google drive, Dragonheart: Vengeance (2020) REMUX 1080p Latino hd 1080p latino.
Comentarios 0