Dragonheart: Vengeance (2020) PLACEBO Full HD 1080p Latino

98 vistas
1 estrella2 estrellas3 estrellas4 estrellas5 estrellas (3 votos, promedio: 5,00 de 5)
Cargando…

Información de Dragonheart: Vengeance (2020) PLACEBO Full HD 1080p Latino

Datos de la película

  • Calidad: Full 1080p
  • Audio: Español Latino AC3 5.1 iTUNES - Ingles DTS 5.1 BLURAY
  • Subtitulos: Español Latino SRT- FORZADOS SRT
  • Resolución: 1920x1080p
  • Formato: MKV
  • Codec: H.264
  • Encoder: cinemaniahdd
  • Mediainfo: Clic para Mostrar Datos Ver
  • Dragonheart Vengeance (2020) PLACEBO 1080p Latino.mkv
    Format                      : Matroska
    Format version              : Version 4
    File size                   : 4.99 GiB
    Duration                    : 1 h 36 min
    Overall bit rate            : 7 367 kb/s
    Movie name                  : Dragonheart Vengeance (2020) - CinemaniaHDD.Net
    Encoded date                : UTC 2020-06-05 05:43:48
    Writing application         : mkvmerge v46.0.0 ('No Deeper Escape') 64-bit
    Writing library             : libebml v1.3.10 + libmatroska v1.5.2

    Video
    ID                          : 1
    Format                      : AVC
    Format/Info                 : Advanced Video Codec
    Format profile              : High@L4.1
    Format settings             : CABAC / 4 Ref Frames
    Format settings, CABAC      : Yes
    Format settings, Reference  : 4 frames
    Codec ID                    : V_MPEG4/ISO/AVC
    Duration                    : 1 h 36 min
    Bit rate                    : 5 471 kb/s
    Width                       : 1 920 pixels
    Height                      : 1 080 pixels
    Display aspect ratio        : 16:9
    Frame rate mode             : Constant
    Frame rate                  : 23.976 (24000/1001) FPS
    Color space                 : YUV
    Chroma subsampling          : 4:2:0
    Bit depth                   : 8 bits
    Scan type                   : Progressive
    Bits/(Pixel*Frame)          : 0.110
    Stream size                 : 3.70 GiB (74%)
    Title                       : CinemaniaHDD
    Writing library             : x264 core 157 r2935 545de2f
    Encoding settings           : cabac=1 / ref=4 / deblock=1:0:0 / analyse=0x3:0x133 / me=tesa / subme=11 / psy=1 / psy_rd=1.00:0.00 / mixed_ref=1 / me_range=24 / chroma_me=1 / trellis=2 / 8x8dct=1 / cqm=0 / deadzone=21,11 / fast_pskip=0 / chroma_qp_offset=-2 / threads=24 / lookahead_threads=6 / sliced_threads=0 / nr=0 / decimate=1 / interlaced=0 / bluray_compat=0 / constrained_intra=0 / bframes=16 / b_pyramid=2 / b_adapt=2 / b_bias=0 / direct=3 / weightb=1 / open_gop=0 / weightp=2 / keyint=240 / keyint_min=24 / scenecut=40 / intra_refresh=0 / rc_lookahead=60 / rc=crf / mbtree=1 / crf=20.0 / qcomp=0.60 / qpmin=0 / qpmax=69 / qpstep=4 / vbv_maxrate=62500 / vbv_bufsize=78125 / crf_max=0.0 / nal_hrd=none / filler=0 / ip_ratio=1.40 / aq=1:1.00
    Default                     : Yes
    Forced                      : No
    Color range                 : Limited
    Color primaries             : BT.709
    Transfer characteristics    : BT.709
    Matrix coefficients         : BT.709

    Audio #1
    ID                          : 2
    Format                      : AC-3
    Format/Info                 : Audio Coding 3
    Commercial name             : Dolby Digital
    Codec ID                    : A_AC3
    Duration                    : 1 h 36 min
    Bit rate mode               : Constant
    Bit rate                    : 384 kb/s
    Channel(s)                  : 6 channels
    Channel layout              : L R C LFE Ls Rs
    Sampling rate               : 48.0 kHz
    Frame rate                  : 31.250 FPS (1536 SPF)
    Compression mode            : Lossy
    Delay relative to video     : -5 ms
    Stream size                 : 266 MiB (5%)
    Title                       : Español latino [CinemaniaHDD]
    Language                    : Spanish
    Service kind                : Complete Main
    Default                     : Yes
    Forced                      : No

    Audio #2
    ID                          : 3
    Format                      : DTS
    Format/Info                 : Digital Theater Systems
    Codec ID                    : A_DTS
    Duration                    : 1 h 36 min
    Bit rate mode               : Constant
    Bit rate                    : 1 509 kb/s
    Channel(s)                  : 6 channels
    Channel layout              : C L R Ls Rs LFE
    Sampling rate               : 48.0 kHz
    Frame rate                  : 93.750 FPS (512 SPF)
    Bit depth                   : 24 bits
    Compression mode            : Lossy
    Delay relative to video     : -5 ms
    Stream size                 : 1.02 GiB (20%)
    Title                       : Inglés [CinemaniaHDD]
    Language                    : English
    Default                     : No
    Forced                      : No

    Text #1
    ID                          : 4
    Format                      : UTF-8
    Codec ID                    : S_TEXT/UTF8
    Codec ID/Info               : UTF-8 Plain Text
    Duration                    : 59 min 9 s
    Bit rate                    : 0 b/s
    Count of elements           : 8
    Stream size                 : 98.0 Bytes (0%)
    Title                       : Forzados [CinemaniaHDD]
    Language                    : Spanish
    Default                     : Yes
    Forced                      : Yes

    Text #2
    ID                          : 5
    Format                      : UTF-8
    Codec ID                    : S_TEXT/UTF8
    Codec ID/Info               : UTF-8 Plain Text
    Duration                    : 1 h 36 min
    Bit rate                    : 48 b/s
    Count of elements           : 1283
    Stream size                 : 34.3 KiB (0%)
    Title                       : Español latino [CinemaniaHDD]
    Language                    : Spanish
    Default                     : No
    Forced                      : No

    Menu
    00:00:00.000                : :Chapter 1
    00:05:33.416                : :Chapter 2
    00:09:01.458                : :Chapter 3
    00:13:01.656                : :Chapter 4
    00:17:46.107                : :Chapter 5
    00:21:59.443                : :Chapter 6
    00:27:17.386                : :Chapter 7
    00:34:52.424                : :Chapter 8
    00:38:06.618                : :Chapter 9
    00:42:08.943                : :Chapter 10
    00:45:11.667                : :Chapter 11
    00:51:19.702                : :Chapter 12
    00:58:41.476                : :Chapter 13
    01:03:53.163                : :Chapter 14
    01:07:56.114                : :Chapter 15
    01:12:40.189                : :Chapter 16
    01:18:11.478                : :Chapter 17
    01:24:32.734                : :Chapter 18
    01:29:24.651                : :Chapter 19
    01:32:25.915                : :Chapter 20

     

  • Peso: 4.99 GiB

Sinopsis

Lukas (Jack Kane), está en búsqueda de venganza, y forma un trío casi imposible con una dragona lanza hielo (Helena Bonham Carter) y el intrépido mercenario (Joseph Millson).

Ficha técnica

Video trailer de la película

Enlaces de descarga

Rip de Bluray

Descargar Dragonheart: Vengeance (2020) PLACEBO Full HD 1080p Latino




Aportes de DPeliculasHDmega la pass es:dpeliculashdmega.org Aportes de CinemaniaHD la pass es:cinemaniahdd.com

Películas relacionadas

  • Amenaza Roja (2012) PLACEBO Full HD 1080p Latino

    Amenaza Roja (2012) PLACEBO Full HD 1080p Latino

    2012
    Amenaza Roja (2012) PLACEBO Full HD 1080p Latino

    5.0 1h 33m 2012

    Remake de la película de 1984 de John Milius que narraba cómo ocho adolescentes huían a las montañas...

    Director: Joe Camp III

    Género: Acción

    Actores: Zachary Schafer

  • Beethoven (1992) Full HD 1080p Latino – CMHDD

    Beethoven (1992) Full HD 1080p Latino – CMHDD

    1992
    Beethoven (1992) Full HD 1080p Latino – CMHDD

    5.0 1h 25m 1992

    El pobre Beethoven, un perro San Bernardo, escapa milagrosamente de las garras de una banda de ladrones...

    Director: Todd Corman

    Género: Comedia

    Actores: Stephanie Durrer

  • Æon Flux (2005) Full HD 1080p Latino – CMHDD

    Æon Flux (2005) Full HD 1080p Latino – CMHDD

    2005
    Æon Flux (2005) Full HD 1080p Latino – CMHDD

    0.0 1h 30m 2005

    Ambientada 400 años en el futuro, una plaga ha hecho desaparecer a la mayoria de la población, excepto...

    Director: Trudy Ramirez

    Género: Acción

    Actores: Yangzom Brauen

  • Sangre y arena (1941) Full HD 1080p Latino – CMHDD

    Sangre y arena (1941) Full HD 1080p Latino – CMHDD

    1941
    Sangre y arena (1941) Full HD 1080p Latino – CMHDD

    3.0 2h 5m 1941

    Después de muchas dificultades, Juan Gallardo (Tyrone Power) se convierte en la primera figura del toreo....

    Director: Rouben Mamoulian

    Género: Acción

    Actores: Victor Kilian

Comentarios 0