×

¿Problemas para descargar con Mozilla, EDGE? Deshabilita la opción "Abrir vinculos en una pestaña nueva" tal como lo muestra ésta imagen.

Doctor Strange (2016) REMUX 1080p Latino – CMHDD

331 vistas

Información de Doctor Strange (2016) REMUX 1080p Latino – CMHDD

Datos de la película

  • Calidad: Full 1080p
  • Audio: Español Latino AC3 5.1 BLURAY - Ingles DTS-HD Master 7.1 BLURAY
  • Subtitulos: Español Latino PGS
  • Resolución: 1920x1080p
  • Formato: MKV
  • Codec: H.264
  • Encoder: Dracarys
  • Mediainfo: Clic para Mostrar Datos Ver
  • Format                      : Matroska
    Format version              : Version 4
    File size                   : 27.0 GiB
    Duration                    : 1 h 54 min
    Overall bit rate mode       : Variable
    Overall bit rate            : 33.6 Mb/s
    Movie name                  : Doctor Strange (2016) REMUX 1080p Latino - CMHDD
    Encoded date                : UTC 2021-05-30 04:43:17
    Writing application         : mkvmerge v56.1.0 ('My Friend') 64-bit
    Writing library             : libebml v1.4.2 + libmatroska v1.6.4
    Cover                       : Yes
    Attachments                 : cover.jpg

    Video
    ID                          : 1
    ID in the original source m : 4113 (0x1011)
    Format                      : AVC
    Format/Info                 : Advanced Video Codec
    Format profile              : High@L4.1
    Format settings             : CABAC / 4 Ref Frames
    Format settings, CABAC      : Yes
    Format settings, Reference  : 4 frames
    Codec ID                    : V_MPEG4/ISO/AVC
    Duration                    : 1 h 54 min
    Bit rate mode               : Variable
    Bit rate                    : 27.5 Mb/s
    Maximum bit rate            : 34.0 Mb/s
    Width                       : 1 920 pixels
    Height                      : 1 080 pixels
    Display aspect ratio        : 16:9
    Frame rate mode             : Constant
    Frame rate                  : 23.976 (24000/1001) FPS
    Color space                 : YUV
    Chroma subsampling          : 4:2:0
    Bit depth                   : 8 bits
    Scan type                   : Progressive
    Bits/(Pixel*Frame)          : 0.552
    Stream size                 : 22.1 GiB (82%)
    Default                     : Yes
    Forced                      : No
    Original source medium      : Blu-ray

    Audio #1
    ID                          : 2
    ID in the original source m : 4352 (0x1100)
    Format                      : DTS XLL
    Format/Info                 : Digital Theater Systems
    Commercial name             : DTS-HD Master Audio
    Codec ID                    : A_DTS
    Duration                    : 1 h 54 min
    Bit rate mode               : Variable
    Bit rate                    : 5 130 kb/s
    Channel(s)                  : 8 channels
    Channel layout              : C L R LFE Lb Rb Lss Rss
    Sampling rate               : 48.0 kHz
    Frame rate                  : 93.750 FPS (512 SPF)
    Bit depth                   : 24 bits
    Compression mode            : Lossless
    Stream size                 : 4.12 GiB (15%)
    Language                    : English
    Default                     : No
    Forced                      : No
    Original source medium      : Blu-ray

    Audio #2
    ID                          : 3
    ID in the original source m : 4353 (0x1101)
    Format                      : AC-3
    Format/Info                 : Audio Coding 3
    Commercial name             : Dolby Digital
    Codec ID                    : A_AC3
    Duration                    : 1 h 54 min
    Bit rate mode               : Constant
    Bit rate                    : 320 kb/s
    Channel(s)                  : 2 channels
    Channel layout              : L R
    Sampling rate               : 48.0 kHz
    Frame rate                  : 31.250 FPS (1536 SPF)
    Compression mode            : Lossy
    Stream size                 : 263 MiB (1%)
    Language                    : English
    Service kind                : Complete Main
    Default                     : No
    Forced                      : No
    Original source medium      : Blu-ray

    Audio #3
    ID                          : 4
    ID in the original source m : 4355 (0x1103)
    Format                      : AC-3
    Format/Info                 : Audio Coding 3
    Commercial name             : Dolby Digital
    Codec ID                    : A_AC3
    Duration                    : 1 h 54 min
    Bit rate mode               : Constant
    Bit rate                    : 640 kb/s
    Channel(s)                  : 6 channels
    Channel layout              : L R C LFE Ls Rs
    Sampling rate               : 48.0 kHz
    Frame rate                  : 31.250 FPS (1536 SPF)
    Compression mode            : Lossy
    Stream size                 : 526 MiB (2%)
    Language                    : Spanish
    Service kind                : Complete Main
    Default                     : Yes
    Forced                      : No
    Original source medium      : Blu-ray

    Text #1
    ID                          : 5
    ID in the original source m : 4610 (0x1202)
    Format                      : PGS
    Muxing mode                 : zlib
    Codec ID                    : S_HDMV/PGS
    Codec ID/Info               : Picture based subtitle format used on BDs/HD-DVDs
    Duration                    : 1 h 52 min
    Bit rate                    : 28.2 kb/s
    Count of elements           : 2562
    Stream size                 : 22.6 MiB (0%)
    Language                    : Spanish
    Default                     : No
    Forced                      : No
    Original source medium      : Blu-ray

    Text #2
    ID                          : 6
    ID in the original source m : 4613 (0x1205)
    Format                      : PGS
    Muxing mode                 : zlib
    Codec ID                    : S_HDMV/PGS
    Codec ID/Info               : Picture based subtitle format used on BDs/HD-DVDs
    Duration                    : 1 h 54 min
    Bit rate                    : 61.2 kb/s
    Count of elements           : 3896
    Stream size                 : 50.2 MiB (0%)
    Language                    : Spanish
    Default                     : No
    Forced                      : No
    Original source medium      : Blu-ray

    Menu
    00:00:00.000                : Chapter 01
    00:04:34.565                : Chapter 02
    00:10:16.824                : Chapter 03
    00:18:32.152                : Chapter 04
    00:24:37.017                : Chapter 05
    00:31:40.481                : Chapter 06
    00:38:33.811                : Chapter 07
    00:43:16.135                : Chapter 08
    00:48:24.526                : Chapter 09
    00:55:34.497                : Chapter 10
    01:05:04.358                : Chapter 11
    01:12:38.437                : Chapter 12
    01:22:14.346                : Chapter 13
    01:28:28.636                : Chapter 14
    01:35:00.903                : Chapter 15
    01:45:06.508                : Chapter 16

  • Peso: 27.0 GiB

Sinopsis

La vida del Dr. Stephen Strange cambia para siempre tras un accidente automovilístico que le deja muy malheridas sus manos. Cuando la medicina tradicional falla, se ve obligado a buscar esperanza y una cura en un lugar impensable: una comunidad aislada en Nepal llamada Kamar-Taj. Rápidamente descubre que éste no es sólo un centro de recuperación, sino también la primera línea de una batalla en contra de fuerzas oscuras y ocultas empeñadas en destruir nuestra realidad. En poco tiempo, Strange, armado con sus poderes mágicos recientemente adquiridos, se ve obligado a elegir entre volver a su antigua vida de riqueza y prestigio o dejarlo todo, para defender el mundo como el mago más poderoso del planeta.

Ficha técnica

Video trailer de la película

Enlaces de descarga

Rip de Bluray

Descargar Doctor Strange (2016) REMUX 1080p Latino – CMHDD


Aportes de DPeliculasHDmega la pass es:dpeliculashdmega.org Aportes de CinemaniaHD la pass es:cinemaniahdd.com

Películas relacionadas

descargar Doctor Strange (2016) REMUX 1080p Latino – CMHDD Full 1080p 1080p gratis, Doctor Strange (2016) REMUX 1080p Latino – CMHDD Full 1080p mega 1 link, Doctor Strange (2016) REMUX 1080p Latino – CMHDD Full 1080p pelicula completa, descargar Doctor Strange (2016) REMUX 1080p Latino – CMHDD Full 1080p gratis en mega.

Doctor Strange (2016) REMUX 1080p Latino – CMHDD pelicula full hd, Doctor Strange (2016) REMUX 1080p Latino – CMHDD mega latino, Doctor Strange (2016) REMUX 1080p Latino – CMHDD 4k latino, Doctor Strange (2016) REMUX 1080p Latino – CMHDD pelicula completa, Doctor Strange (2016) REMUX 1080p Latino – CMHDD descargar gratis, descargar Doctor Strange (2016) REMUX 1080p Latino – CMHDD pelicula latino, Doctor Strange (2016) REMUX 1080p Latino – CMHDD 1 link mega, Doctor Strange (2016) REMUX 1080p Latino – CMHDD 1 link google drive, Doctor Strange (2016) REMUX 1080p Latino – CMHDD hd 1080p latino.
Comentarios 0