×

¿Problemas para descargar con Mozilla, EDGE? Deshabilita la opción "Abrir vinculos en una pestaña nueva" tal como lo muestra ésta imagen.

Cyberpunk: Edgerunners (2022) Temporada 1 NF WEB-DL 1080p Latino

82 vistas

Información de Cyberpunk: Edgerunners (2022) Temporada 1 NF WEB-DL 1080p Latino

Datos de la película

  • Calidad: WEBDL
  • Audio: Se especifica abajo de la Sinopsis
  • Subtitulos: Español Latino SRT- FORZADOS SRT
  • Resolución: 1920x1080p
  • Formato: MKV
  • Codec: H.264
  • Encoder: Melkor
  • Mediainfo: Clic para Mostrar Datos Ver
  • Cyberpunk Edgerunners S01E01 (2022) NF WEB-DL 1080p Latino.mkv
    Format                      : Matroska
    Format version              : Version 4
    File size                   : 703 MiB
    Duration                    : 25 min 36 s
    Overall bit rate mode       : Variable
    Overall bit rate            : 3 836 kb/s
    Movie name                  : Cyberpunk Edgerunners S01E01 CinemaniaHDD.Net
    Encoded date                : UTC 2022-10-04 04:20:13
    Writing application         : mkvmerge v56.1.0 ('My Friend') 64-bit
    Writing library             : libebml v1.4.2 + libmatroska v1.6.4
    Attachments                 : CINEMANIAHD.png

    Video
    ID                          : 1
    Format                      : AVC
    Format/Info                 : Advanced Video Codec
    Format profile              : Main@L4
    Format settings             : CABAC / 3 Ref Frames
    Format settings, CABAC      : Yes
    Format settings, Reference  : 3 frames
    Codec ID                    : V_MPEG4/ISO/AVC
    Duration                    : 25 min 36 s
    Bit rate mode               : Variable
    Bit rate                    : 2 554 kb/s
    Nominal bit rate            : 4 640 kb/s
    Maximum bit rate            : 6 960 kb/s
    Width                       : 1 920 pixels
    Height                      : 1 080 pixels
    Display aspect ratio        : 16:9
    Frame rate mode             : Constant
    Frame rate                  : 23.976 (24000/1001) FPS
    Color space                 : YUV
    Chroma subsampling          : 4:2:0
    Bit depth                   : 8 bits
    Scan type                   : Progressive
    Bits/(Pixel*Frame)          : 0.051
    Stream size                 : 468 MiB (67%)
    Title                       : WEB HD1080p [CinemaniaHDD]
    Writing library             : x264 core 148 r2727 7d026e8
    Encoding settings           : cabac=1 / ref=3 / deblock=1:0:0 / analyse=0x1:0x111 / me=umh / subme=10 / psy=1 / psy_rd=1.00:0.00 / mixed_ref=1 / me_range=24 / chroma_me=1 / trellis=2 / 8x8dct=0 / cqm=0 / deadzone=21,11 / fast_pskip=1 / chroma_qp_offset=-2 / threads=6 / lookahead_threads=1 / sliced_threads=0 / nr=0 / decimate=1 / interlaced=0 / bluray_compat=0 / stitchable=1 / constrained_intra=0 / bframes=2 / b_pyramid=0 / b_adapt=2 / b_bias=0 / direct=3 / weightb=1 / open_gop=0 / weightp=2 / keyint=250 / keyint_min=23 / scenecut=0 / intra_refresh=0 / rc_lookahead=48 / rc=2pass / mbtree=1 / bitrate=4640 / ratetol=1.0 / qcomp=0.50 / qpmin=6 / qpmax=51 / qpstep=4 / cplxblur=20.0 / qblur=0.5 / vbv_maxrate=6960 / vbv_bufsize=9280 / nal_hrd=vbr / filler=0 / ip_ratio=1.40 / aq=1:1.00
    Default                     : Yes
    Forced                      : Yes

    Audio #1
    ID                          : 2
    Format                      : E-AC-3
    Format/Info                 : Enhanced AC-3
    Commercial name             : Dolby Digital Plus
    Codec ID                    : A_EAC3
    Duration                    : 25 min 36 s
    Bit rate mode               : Constant
    Bit rate                    : 640 kb/s
    Channel(s)                  : 6 channels
    Channel layout              : L R C LFE Ls Rs
    Sampling rate               : 48.0 kHz
    Frame rate                  : 31.250 FPS (1536 SPF)
    Compression mode            : Lossy
    Stream size                 : 117 MiB (17%)
    Title                       : Español Latino [CinemaniaHDD]
    Language                    : Spanish
    Service kind                : Complete Main
    Default                     : Yes
    Forced                      : Yes

    Audio #2
    ID                          : 3
    Format                      : E-AC-3
    Format/Info                 : Enhanced AC-3
    Commercial name             : Dolby Digital Plus
    Codec ID                    : A_EAC3
    Duration                    : 25 min 36 s
    Bit rate mode               : Constant
    Bit rate                    : 640 kb/s
    Channel(s)                  : 6 channels
    Channel layout              : L R C LFE Ls Rs
    Sampling rate               : 48.0 kHz
    Frame rate                  : 31.250 FPS (1536 SPF)
    Compression mode            : Lossy
    Stream size                 : 117 MiB (17%)
    Title                       : Japones [CinemaniaHDD]
    Language                    : Japanese
    Service kind                : Complete Main
    Default                     : No
    Forced                      : No

    Text #1
    ID                          : 4
    Format                      : UTF-8
    Codec ID                    : S_TEXT/UTF8
    Codec ID/Info               : UTF-8 Plain Text
    Duration                    : 21 min 51 s
    Bit rate                    : 1 b/s
    Count of elements           : 10
    Stream size                 : 195 Bytes (0%)
    Title                       : Forzados-SRT [CinemaniaHDD]
    Language                    : Spanish
    Default                     : Yes
    Forced                      : Yes

    Text #2
    ID                          : 5
    Format                      : UTF-8
    Codec ID                    : S_TEXT/UTF8
    Codec ID/Info               : UTF-8 Plain Text
    Duration                    : 22 min 18 s
    Bit rate                    : 61 b/s
    Count of elements           : 287
    Stream size                 : 10.1 KiB (0%)
    Title                       : Español-SRT [CinemaniaHDD]
    Language                    : Spanish
    Default                     : No
    Forced                      : No

    Text #3
    ID                          : 6
    Format                      : UTF-8
    Codec ID                    : S_TEXT/UTF8
    Codec ID/Info               : UTF-8 Plain Text
    Duration                    : 21 min 45 s
    Bit rate                    : 58 b/s
    Count of elements           : 256
    Stream size                 : 9.35 KiB (0%)
    Title                       : Ingles-SRT [CinemaniaHDD]
    Language                    : English
    Default                     : No
    Forced                      : No

  • Peso: 700 MB Aprox. C/U -- 7.49 GiB -- 10 Chpaters

Sinopsis

Descargar Cyberpunk: Edgerunners (2022) Temporada 1 NF WEB-DL 1080p Latino. La historia nos lleva a la vida de un chico que malvive en las calles de una ciudad futurista obsesionada con la tecnología y la modificación corporal. Con todo en su contra, logra sobrevivir convirtiéndose en un ‘edgerunner’, un mercenario proscrito también conocido como ‘cyberpunk’.

Español Latino EAC3 5.1 NF – Japones EAC3 5.1 NF

Ficha técnica

Video trailer de la película

Enlaces de descarga

Rip de Bluray

Descargar Cyberpunk: Edgerunners (2022) Temporada 1 NF WEB-DL 1080p Latino




Aportes de DPeliculasHDmega la pass es:dpeliculashdmega.org Aportes de CinemaniaHD la pass es:cinemaniahdd.com

Películas relacionadas

descargar Cyberpunk: Edgerunners (2022) Temporada 1 NF WEB-DL 1080p Latino WEBDL 1080p gratis, Cyberpunk: Edgerunners (2022) Temporada 1 NF WEB-DL 1080p Latino WEBDL mega 1 link, Cyberpunk: Edgerunners (2022) Temporada 1 NF WEB-DL 1080p Latino WEBDL serie completa, descargar Cyberpunk: Edgerunners (2022) Temporada 1 NF WEB-DL 1080p Latino WEBDL gratis en mega.

Cyberpunk: Edgerunners (2022) Temporada 1 NF WEB-DL 1080p Latino pelicula full hd, Cyberpunk: Edgerunners (2022) Temporada 1 NF WEB-DL 1080p Latino mega latino, Cyberpunk: Edgerunners (2022) Temporada 1 NF WEB-DL 1080p Latino 4k latino, Cyberpunk: Edgerunners (2022) Temporada 1 NF WEB-DL 1080p Latino pelicula completa, Cyberpunk: Edgerunners (2022) Temporada 1 NF WEB-DL 1080p Latino descargar gratis, descargar Cyberpunk: Edgerunners (2022) Temporada 1 NF WEB-DL 1080p Latino pelicula latino, Cyberpunk: Edgerunners (2022) Temporada 1 NF WEB-DL 1080p Latino 1 link mega, Cyberpunk: Edgerunners (2022) Temporada 1 NF WEB-DL 1080p Latino 1 link google drive, Cyberpunk: Edgerunners (2022) Temporada 1 NF WEB-DL 1080p Latino hd 1080p latino.
Comentarios 0