Cuestión de tiempo (2013) Full 1080p Latino

1.283 vistas
1 estrella2 estrellas3 estrellas4 estrellas5 estrellas (2 votos, promedio: 5,00 de 5)
Cargando…

Información de Cuestión de tiempo (2013) Full 1080p Latino

Datos de la película

  • Calidad: Full 1080p
  • Audio: Español Latino DTS 5.1 BLURAY - Ingles DTS 5.1 BLURAY
  • Subtitulos: Español Latino PGS - Ingles PGS
  • Resolución: 1920x1080p
  • Formato: MKV
  • Codec: H.264
  • Encoder: Dracarys
  • Mediainfo: Clic para Mostrar Datos Ver
  • Format                                   : Matroska
    Format version                           : Version 2
    File size                                : 4.48 GiB
    Duration                                 : 2 h 3 min
    Overall bit rate                         : 5 191 kb/s
    Movie name                               : CinemaniaHDD.net
    Encoded date                             : UTC 2018-07-04 18:41:34 / UTC 2018-06-26T12:12:06Z
    Writing application                      : mkvmerge v5.7.0 ('The Whirlwind') built on Jul  8 2012 20:08:51
    Writing library                          : libebml v1.2.3 + libmatroska v1.3.0 / Lavf57.7.2

    Video
    ID                                       : 1
    Format                                   : AVC
    Format/Info                              : Advanced Video Codec
    Format profile                           : High@L4.1
    Format settings                          : CABAC / 4 Ref Frames
    Format settings, CABAC                   : Yes
    Format settings, RefFrames               : 4 frames
    Muxing mode                              : Header stripping
    Codec ID                                 : V_MPEG4/ISO/AVC
    Duration                                 : 2 h 3 min
    Bit rate                                 : 2 811 kb/s
    Width                                    : 1 920 pixels
    Height                                   : 1 080 pixels
    Display aspect ratio                     : 16:9
    Frame rate mode                          : Constant
    Frame rate                               : 23.976 (24000/1001) FPS
    Color space                              : YUV
    Chroma subsampling                       : 4:2:0
    Bit depth                                : 8 bits
    Scan type                                : Progressive
    Bits/(Pixel*Frame)                       : 0.057
    Stream size                              : 2.42 GiB (54%)
    Title                                    : Cuestión de tiempo (2013) Full 1080p Latino
    Writing library                          : x264 core 155 r2893 b00bcaf
    Encoding settings                        : cabac=1 / ref=4 / deblock=1:0:0 / analyse=0x3:0x133 / me=esa / subme=10 / psy=1 / psy_rd=1.00:0.00 / mixed_ref=1 / me_range=24 / chroma_me=1 / trellis=2 / 8x8dct=1 / cqm=0 / deadzone=21,11 / fast_pskip=1 / chroma_qp_offset=-2 / threads=24 / lookahead_threads=4 / sliced_threads=0 / nr=0 / decimate=1 / interlaced=0 / bluray_compat=0 / constrained_intra=0 / bframes=8 / b_pyramid=2 / b_adapt=2 / b_bias=0 / direct=3 / weightb=1 / open_gop=0 / weightp=2 / keyint=240 / keyint_min=24 / scenecut=40 / intra_refresh=0 / rc_lookahead=60 / rc=crf / mbtree=1 / crf=20.0 / qcomp=0.60 / qpmin=0 / qpmax=69 / qpstep=4 / vbv_maxrate=62500 / vbv_bufsize=78125 / crf_max=0.0 / nal_hrd=none / filler=0 / ip_ratio=1.40 / aq=1:1.00
    Language                                 : English
    Default                                  : Yes
    Forced                                   : No
    Color range                              : Limited
    Color primaries                          : BT.709
    Transfer characteristics                 : BT.709
    Matrix coefficients                      : BT.709

    Audio #1
    ID                                       : 2
    Format                                   : DTS
    Format/Info                              : Digital Theater Systems
    Mode                                     : 16
    Format settings, Endianness              : Big
    Muxing mode                              : Header stripping
    Codec ID                                 : A_DTS
    Duration                                 : 2 h 3 min
    Bit rate mode                            : Constant
    Bit rate                                 : 768 kb/s
    Channel(s)                               : 6 channels
    Channel positions                        : Front: L C R, Side: L R, LFE
    Sampling rate                            : 48.0 kHz
    Frame rate                               : 93.750 FPS (512 SPF)
    Bit depth                                : 24 bits
    Compression mode                         : Lossy
    Stream size                              : 678 MiB (15%)
    Language                                 : Spanish
    Default                                  : Yes
    Forced                                   : No

    Audio #2
    ID                                       : 3
    Format                                   : DTS
    Format/Info                              : Digital Theater Systems
    Mode                                     : 16
    Format settings, Endianness              : Big
    Muxing mode                              : Header stripping
    Codec ID                                 : A_DTS
    Duration                                 : 2 h 3 min
    Bit rate mode                            : Constant
    Bit rate                                 : 1 509 kb/s
    Channel(s)                               : 6 channels
    Channel positions                        : Front: L C R, Side: L R, LFE
    Sampling rate                            : 48.0 kHz
    Frame rate                               : 93.750 FPS (512 SPF)
    Bit depth                                : 24 bits
    Compression mode                         : Lossy
    Stream size                              : 1.30 GiB (29%)
    Language                                 : English
    Default                                  : No
    Forced                                   : No

    Text #1
    ID                                       : 4
    Format                                   : PGS
    Muxing mode                              : zlib
    Codec ID                                 : S_HDMV/PGS
    Codec ID/Info                            : Picture based subtitle format used on BDs/HD-DVDs
    Language                                 : English
    Default                                  : No
    Forced                                   : No

    Text #2
    ID                                       : 5
    Format                                   : PGS
    Muxing mode                              : zlib
    Codec ID                                 : S_HDMV/PGS
    Codec ID/Info                            : Picture based subtitle format used on BDs/HD-DVDs
    Language                                 : Spanish
    Default                                  : No
    Forced                                   : No

    Text #3
    ID                                       : 6
    Format                                   : PGS
    Muxing mode                              : zlib
    Codec ID                                 : S_HDMV/PGS
    Codec ID/Info                            : Picture based subtitle format used on BDs/HD-DVDs
    Title                                    : Forzados
    Language                                 : Spanish
    Default                                  : Yes
    Forced                                   : Yes

    Menu
    00:00:00.000                             : :Chapter 1
    00:03:58.071                             : :Chapter 2
    00:10:11.903                             : :Chapter 3
    00:17:26.295                             : :Chapter 4
    00:20:38.112                             : :Chapter 5
    00:26:04.396                             : :Chapter 6
    00:32:44.004                             : :Chapter 7
    00:40:26.466                             : :Chapter 8
    00:45:17.965                             : :Chapter 9
    00:49:43.439                             : :Chapter 10
    00:54:50.871                             : :Chapter 11
    01:03:44.529                             : :Chapter 12
    01:09:29.374                             : :Chapter 13
    01:16:28.000                             : :Chapter 14
    01:21:35.724                             : :Chapter 15
    01:27:24.448                             : :Chapter 16
    01:34:52.812                             : :Chapter 17
    01:43:48.848                             : :Chapter 18
    01:49:32.316                             : :Chapter 19
    01:57:03.141                             : :Chapter 20

  • Peso: 4.48 GiB

Sinopsis

La trama de la película gira en torno a un joven llamado Tim Lake. El protagonista y su familia tienen el curioso don de poder viajar a través del tiempo. Al descubrir esta cualidad, Tim empieza a beneficiarse de ello para cambiar diferentes aspectos de su vida. Se enamora de una chica, Mary, a la que conoce tras transladarse a vivir a Londres por motivos de trabajo. Su historia de amor se verá beneficiada gracias al don de Tim, sin embargo, el protagonista no tardará en darse cuenta de que su habilidad no es capaz de ampararle en algunos problemas y cuestiones familiares.

Ficha técnica

Video trailer de la película

Enlaces de descarga

Rip de Bluray

Descargar Cuestión de tiempo (2013) Full 1080p Latino




Aportes de DPeliculasHDmega la pass es:dpeliculashdmega.org Aportes de CinemaniaHD la pass es:cinemaniahdd.com

Películas relacionadas

  • El Jefe de la Mafia: Gotti (2018) 1080p Latino

    2018
    El Jefe de la Mafia: Gotti (2018) 1080p Latino

    1.0 1h 50m 2018

    Descargar El Jefe de la Mafia: Gotti (2018) 1080p Latino, Mega, Google Drive. Biopic del famoso mafioso...

    Director: S. B. Weathersby

    Género: Crimen

    Actores: William DeMeo

  • El final del viaje (2018) 1080p Latino

    2018
    El final del viaje (2018) 1080p Latino

    1.0 1h 48m 2018

    Descargar El final del viaje (2018) 1080p Latino, Mega, Google Drive. Un grupo de soldados británicos...

    Director: Saul Dibb

    Género: Bélica

    Actores: Tom Sturridge

  • Mision: Imposible 2 (2000) Full 1080p Latino

    2000
    Mision: Imposible 2 (2000) Full 1080p Latino

    3.0 2h 3m 2000

    Descargar Mision: Imposible 2 (2000) Full 1080p Latino, Mega, Google Drive. El agente especial Ethan...

    Director: William H. Burton Jr.

    Género: Acción

    Actores: William Mapother

  • Mision: Imposible (1996) Full 1080p Latino

    1996
    Mision: Imposible (1996) Full 1080p Latino

    3.7 1h 50m 1996

    Mission: Impossible (1996) Full 1080p Latino, Mega, Google Drive. Ethan Hunt es un superespía capaz...

    Director: Nick Moore

    Género: Acción

    Actores: Ving Rhames

  • Los increíbles 2 (2018) Full 1080p Latino

    2018
    Los increíbles 2 (2018) Full 1080p Latino

    4.4 1h 58m 2018

    Helen tiene que liderar una campaña para que los superhéroes regresen, mientras Bob vive su vida "normal"...

    Director: Seong-Young Kim

    Género: Acción

    Actores: Usher

Comentarios 0