×

¿Problemas para descargar con Mozilla, EDGE? Deshabilita la opción "Abrir vinculos en una pestaña nueva" tal como lo muestra ésta imagen.

Cuarentones (2022) NF Web-DL 1080p Latino

307 vistas

Información de Cuarentones (2022) NF Web-DL 1080p Latino

Datos de la película

  • Calidad: WEBDL
  • Audio: Español Latino AC3 5.1 Netflix
  • Subtitulos: Español Latino SRT- FORZADOS SRT
  • Resolución: 1920x1080p
  • Formato: MKV
  • Codec: H.264
  • Encoder: Melkor
  • Mediainfo: Clic para Mostrar Datos Ver
  • Cuarentones (2022) NF WebDL 1080p Latino.mkv
    Format                      : Matroska
    Format version              : Version 4
    File size                   : 4.04 GiB
    Duration                    : 1 h 21 min
    Overall bit rate mode       : Variable
    Overall bit rate            : 7 059 kb/s
    Movie name                  : Cuarentones (2022) CinemaniaHDD.Net
    Encoded date                : UTC 2022-05-05 04:45:11
    Writing application         : mkvmerge v56.1.0 ('My Friend') 64-bit
    Writing library             : libebml v1.4.2 + libmatroska v1.6.4
    Attachments                 : CINEMANIAHD.png

    Video
    ID                          : 1
    Format                      : AVC
    Format/Info                 : Advanced Video Codec
    Format profile              : Main@L4
    Format settings             : CABAC / 3 Ref Frames
    Format settings, CABAC      : Yes
    Format settings, Reference  : 3 frames
    Codec ID                    : V_MPEG4/ISO/AVC
    Duration                    : 1 h 21 min
    Bit rate mode               : Variable
    Bit rate                    : 5 800 kb/s
    Maximum bit rate            : 8 700 kb/s
    Width                       : 1 920 pixels
    Height                      : 1 080 pixels
    Display aspect ratio        : 16:9
    Frame rate mode             : Constant
    Frame rate                  : 24.000 FPS
    Color space                 : YUV
    Chroma subsampling          : 4:2:0
    Bit depth                   : 8 bits
    Scan type                   : Progressive
    Bits/(Pixel*Frame)          : 0.117
    Stream size                 : 3.30 GiB (82%)
    Title                       : Web HD1080p [CinemaniaHDD]
    Writing library             : x264 core 148 r2727 7d026e8
    Encoding settings           : cabac=1 / ref=3 / deblock=1:0:0 / analyse=0x1:0x111 / me=umh / subme=10 / psy=1 / psy_rd=1.00:0.00 / mixed_ref=1 / me_range=24 / chroma_me=1 / trellis=2 / 8x8dct=0 / cqm=0 / deadzone=21,11 / fast_pskip=1 / chroma_qp_offset=-2 / threads=8 / lookahead_threads=1 / sliced_threads=0 / nr=0 / decimate=1 / interlaced=0 / bluray_compat=0 / stitchable=1 / constrained_intra=0 / bframes=2 / b_pyramid=0 / b_adapt=2 / b_bias=0 / direct=3 / weightb=1 / open_gop=0 / weightp=2 / keyint=250 / keyint_min=24 / scenecut=0 / intra_refresh=0 / rc_lookahead=48 / rc=2pass / mbtree=1 / bitrate=5800 / ratetol=1.0 / qcomp=0.50 / qpmin=6 / qpmax=51 / qpstep=4 / cplxblur=20.0 / qblur=0.5 / vbv_maxrate=8700 / vbv_bufsize=11600 / nal_hrd=vbr / filler=0 / ip_ratio=1.40 / aq=1:1.00
    Default                     : Yes
    Forced                      : Yes

    Audio #1
    ID                          : 2
    Format                      : E-AC-3
    Format/Info                 : Enhanced AC-3
    Commercial name             : Dolby Digital Plus
    Codec ID                    : A_EAC3
    Duration                    : 1 h 21 min
    Bit rate mode               : Constant
    Bit rate                    : 640 kb/s
    Channel(s)                  : 6 channels
    Channel layout              : L R C LFE Ls Rs
    Sampling rate               : 48.0 kHz
    Frame rate                  : 31.250 FPS (1536 SPF)
    Compression mode            : Lossy
    Stream size                 : 375 MiB (9%)
    Title                       : Español Latino [CinemaniaHDD]
    Language                    : Spanish
    Service kind                : Complete Main
    Default                     : Yes
    Forced                      : Yes

    Audio #2
    ID                          : 3
    Format                      : AC-3
    Format/Info                 : Audio Coding 3
    Commercial name             : Dolby Digital
    Codec ID                    : A_AC3
    Duration                    : 1 h 21 min
    Bit rate mode               : Constant
    Bit rate                    : 640 kb/s
    Channel(s)                  : 6 channels
    Channel layout              : L R C LFE Ls Rs
    Sampling rate               : 48.0 kHz
    Frame rate                  : 31.250 FPS (1536 SPF)
    Compression mode            : Lossy
    Stream size                 : 375 MiB (9%)
    Title                       : Español Latino AC3 [CinemaniaHDD]
    Language                    : Spanish
    Service kind                : Complete Main
    Default                     : No
    Forced                      : No

    Text
    ID                          : 4
    Format                      : UTF-8
    Codec ID                    : S_TEXT/UTF8
    Codec ID/Info               : UTF-8 Plain Text
    Duration                    : 27 min 25 s
    Bit rate                    : 1 b/s
    Count of elements           : 10
    Stream size                 : 254 Bytes (0%)
    Title                       : Forzados-SRT [CinemaniaHDD]
    Language                    : Spanish
    Default                     : Yes
    Forced                      : Yes

  • Peso: 4.04 GiB

Sinopsis

Descargar Cuarentones (2022) NF Web-DL 1080p Latino. César es un chef exitoso, dueño de un restaurante italo-mexicano junto con su gran amigo Paolo, un hombre alegre y optimista. César está felizmente casado con Amelia, con quien tiene un hijo de diez años llamado Enrique. Poco antes de cumplir cuarenta años, descubre repentinamente que su esposa le ha ocultado algo importante durante mucho tiempo. Deprimido y derrotado, César siente que se le cae el mundo. Pero justo en el momento de crisis, César tiene que ir con Paolo a Cancún, a concursar en un certamen para los mejores pequeños restaurantes de México. El chef recupera confianza en sí mismo gracias a Naomi, una mujer irónica y fuerte, que conoce en el hotel de playa, que le enseña a lidiar de manera equilibrada con las sorpresas que se presentan en la vida.

Ficha técnica

  • Titulo original: Cuarentones
  • Fecha de lanzamiento: 10-03-2022 (Mexico)
  • Director: Pietro Loprieno
  • Género: Comedy

Video trailer de la película

Enlaces de descarga

Rip de Bluray

Descargar Cuarentones (2022) NF Web-DL 1080p Latino




Aportes de DPeliculasHDmega la pass es:dpeliculashdmega.org Aportes de CinemaniaHD la pass es:cinemaniahdd.com
Guardado en : Comedy

Películas relacionadas

  • Minions: Nace un villano (2022) HD 1080p Latino

    Minions: Nace un villano (2022) HD 1080p Latino

    2022
    Minions: Nace un villano (2022) HD 1080p Latino

    1h 27m 2022

    Descargar Minions: Nace un villano (2022) HD 1080p Latino. Mucho antes de convertirse en un genio del...

    Director: Kyle Balda

    Género: Adventure

    Actores: Will Collyer

  • Minions: Nace un villano (2022) REMUX 1080p Latino

    Minions: Nace un villano (2022) REMUX 1080p Latino

    2022
    Minions: Nace un villano (2022) REMUX 1080p Latino

    1h 27m 2022

    Descargar Minions: Nace un villano (2022) REMUX 1080p Latino. Mucho antes de convertirse en un genio...

    Director: Kyle Balda

    Género: Adventure

    Actores: Will Collyer

  • Jackass por Siempre (2022) Web-DL 1080p Latino

    Jackass por Siempre (2022) Web-DL 1080p Latino

    2022
    Jackass por Siempre (2022) Web-DL 1080p Latino

    1h 36m 2022

    Descargar Jackass por Siempre (2022) Web-DL 1080p Latino. El equipo de Jackass ha vuelto para su cruzada...

    Director: Jeff Tremaine

    Género: Action

    Actores: Zach Holmes

  • Realmente amor (2003) 4K UHD SDR WEB Latino

    Realmente amor (2003) 4K UHD SDR WEB Latino

    2003
    Realmente amor (2003) 4K UHD SDR WEB Latino

    2h 15m 2003

    Descargar Realmente amor (2003) 4K UHD SDR WEB Latino. En Londres, poco antes de las Navidades, se entrelazan...

    Director: Tom Glaisyer

    Género: 4K UHD

    Actores: William Wadham

descargar Cuarentones (2022) NF Web-DL 1080p Latino WEBDL 1080p gratis, Cuarentones (2022) NF Web-DL 1080p Latino WEBDL mega 1 link, Cuarentones (2022) NF Web-DL 1080p Latino WEBDL pelicula completa, descargar Cuarentones (2022) NF Web-DL 1080p Latino WEBDL gratis en mega.

Cuarentones (2022) NF Web-DL 1080p Latino pelicula full hd, Cuarentones (2022) NF Web-DL 1080p Latino mega latino, Cuarentones (2022) NF Web-DL 1080p Latino 4k latino, Cuarentones (2022) NF Web-DL 1080p Latino pelicula completa, Cuarentones (2022) NF Web-DL 1080p Latino descargar gratis, descargar Cuarentones (2022) NF Web-DL 1080p Latino pelicula latino, Cuarentones (2022) NF Web-DL 1080p Latino 1 link mega, Cuarentones (2022) NF Web-DL 1080p Latino 1 link google drive, Cuarentones (2022) NF Web-DL 1080p Latino hd 1080p latino.
Comentarios 0