×

¿Problemas para descargar con Mozilla, EDGE? Deshabilita la opción "Abrir vinculos en una pestaña nueva" tal como lo muestra ésta imagen.

Cinderella: The Enchanted Beginning (2018) Web-DL 1080p Latino

774 vistas

Información de Cinderella: The Enchanted Beginning (2018) Web-DL 1080p Latino

Datos de la película

  • Calidad: WEBDL
  • Audio: Español Latino AC3 2.0 iTunes - Ingles AC3 2.0 iTunes
  • Subtitulos: Español Latino SRT - Ingles SRT
  • Resolución: 1920x804p
  • Formato: MKV
  • Codec: H.264
  • Encoder: CinemaniaHD
  • Mediainfo: Clic para Mostrar Datos Ver
  • Cinderella The Enchanted Beginning (2018) Web-DL 1080p Latino-CMHDD.mkv
    Format                      : Matroska
    Format version              : Version 4
    File size                   : 2.73 GiB
    Duration                    : 1 h 19 min
    Overall bit rate            : 4 902 kb/s
    Movie name                  : Cinderella The Enchanted Beginning (2018) CinemaniaHDD.Net
    Encoded date                : UTC 2020-03-27 05:42:35
    Writing application         : mkvmerge v42.0.0 ('Overtime') 64-bit
    Writing library             : libebml v1.3.10 + libmatroska v1.5.2
    Attachments                 : CINEMANIAHD.png

    Video
    ID                          : 1
    Format                      : AVC
    Format/Info                 : Advanced Video Codec
    Format profile              : High@L4
    Format settings             : CABAC / 5 Ref Frames
    Format settings, CABAC      : Yes
    Format settings, ReFrames   : 5 frames
    Codec ID                    : V_MPEG4/ISO/AVC
    Duration                    : 1 h 19 min
    Bit rate                    : 4 388 kb/s
    Width                       : 1 920 pixels
    Height                      : 804 pixels
    Display aspect ratio        : 2.40:1
    Frame rate mode             : Constant
    Frame rate                  : 23.976 FPS
    Color space                 : YUV
    Chroma subsampling          : 4:2:0
    Bit depth                   : 8 bits
    Scan type                   : Progressive
    Bits/(Pixel*Frame)          : 0.119
    Stream size                 : 2.45 GiB (90%)
    Title                       : HD1080p [Web]
    Default                     : Yes
    Forced                      : Yes
    Color range                 : Limited
    Color primaries             : BT.709
    Transfer characteristics    : BT.709
    Matrix coefficients         : BT.709

    Audio #1
    ID                          : 2
    Format                      : AC-3
    Format/Info                 : Audio Coding 3
    Commercial name             : Dolby Digital
    Codec ID                    : A_AC3
    Duration                    : 1 h 19 min
    Bit rate mode               : Constant
    Bit rate                    : 256 kb/s
    Channel(s)                  : 2 channels
    Channel layout              : L R
    Sampling rate               : 48.0 kHz
    Frame rate                  : 31.250 FPS (1536 SPF)
    Bit depth                   : 16 bits
    Compression mode            : Lossy
    Stream size                 : 146 MiB (5%)
    Title                       : AC3_2.0_Web_Esp
    Language                    : Spanish
    Service kind                : Complete Main
    Default                     : Yes
    Forced                      : Yes

    Audio #2
    ID                          : 3
    Format                      : AC-3
    Format/Info                 : Audio Coding 3
    Commercial name             : Dolby Digital
    Codec ID                    : A_AC3
    Duration                    : 1 h 19 min
    Bit rate mode               : Constant
    Bit rate                    : 256 kb/s
    Channel(s)                  : 2 channels
    Channel layout              : L R
    Sampling rate               : 48.0 kHz
    Frame rate                  : 31.250 FPS (1536 SPF)
    Bit depth                   : 16 bits
    Compression mode            : Lossy
    Stream size                 : 146 MiB (5%)
    Title                       : AC3_2.0_Web_Eng
    Language                    : English
    Service kind                : Complete Main
    Default                     : No
    Forced                      : No

    Text #1
    ID                          : 4
    Format                      : UTF-8
    Codec ID                    : S_TEXT/UTF8
    Codec ID/Info               : UTF-8 Plain Text
    Duration                    : 1 h 16 min
    Bit rate                    : 49 b/s
    Count of elements           : 822
    Stream size                 : 27.7 KiB (0%)
    Title                       : Sub_Esp
    Language                    : Spanish
    Default                     : No
    Forced                      : No

    Text #2
    ID                          : 5
    Format                      : UTF-8
    Codec ID                    : S_TEXT/UTF8
    Codec ID/Info               : UTF-8 Plain Text
    Duration                    : 1 h 6 min
    Bit rate                    : 55 b/s
    Count of elements           : 947
    Stream size                 : 27.0 KiB (0%)
    Title                       : Sub_Eng
    Language                    : English
    Default                     : No
    Forced                      : No

    Menu
    00:00:00.000                : en:1
    00:11:15.466                : en:2
    00:23:20.523                : en:3
    00:36:47.704                : en:4
    00:50:01.914                : en:5
    00:59:27.102                : en:6
    01:07:44.390                : en:7
    01:17:36.189                : en:8

  • Peso: 2.73 GiB

Sinopsis

Decargar Cinderella: The Enchanted Beginning (2018) Web-DL 1080p Latino. Forzada a vivir una vida desdichada por su malvada madrastra y sus dos hermanastras, Cinderella Perrault, aprende sobre el fruto del amor, la vida y el autodescubrimiento en esta versión moderna del cuento clásico.

Ficha técnica

  • Titulo original: Cinderella: The Enchanted Beginning
  • Fecha de lanzamiento: 15-12-2018 (United States of America)
  • Director: Steven Salgado
  • Género: Familia

Video trailer de la película

Enlaces de descarga

Rip de Bluray

Descargar Cinderella: The Enchanted Beginning (2018) Web-DL 1080p Latino




Aportes de DPeliculasHDmega la pass es:dpeliculashdmega.org Aportes de CinemaniaHD la pass es:cinemaniahdd.com
Guardado en : Familia

Películas relacionadas

descargar Cinderella: The Enchanted Beginning (2018) Web-DL 1080p Latino WEBDL 1080p gratis, Cinderella: The Enchanted Beginning (2018) Web-DL 1080p Latino WEBDL mega 1 link, Cinderella: The Enchanted Beginning (2018) Web-DL 1080p Latino WEBDL pelicula completa, descargar Cinderella: The Enchanted Beginning (2018) Web-DL 1080p Latino WEBDL gratis en mega.

Cinderella: The Enchanted Beginning (2018) Web-DL 1080p Latino pelicula full hd, Cinderella: The Enchanted Beginning (2018) Web-DL 1080p Latino mega latino, Cinderella: The Enchanted Beginning (2018) Web-DL 1080p Latino 4k latino, Cinderella: The Enchanted Beginning (2018) Web-DL 1080p Latino pelicula completa, Cinderella: The Enchanted Beginning (2018) Web-DL 1080p Latino descargar gratis, descargar Cinderella: The Enchanted Beginning (2018) Web-DL 1080p Latino pelicula latino, Cinderella: The Enchanted Beginning (2018) Web-DL 1080p Latino 1 link mega, Cinderella: The Enchanted Beginning (2018) Web-DL 1080p Latino 1 link google drive, Cinderella: The Enchanted Beginning (2018) Web-DL 1080p Latino hd 1080p latino.
Comentarios 0