Cats and Peachtopia (2018) WEB-DL 1080p Latino

26 vistas
1 estrella2 estrellas3 estrellas4 estrellas5 estrellas (1 votos, promedio: 5,00 de 5)
Cargando...

Información de Cats and Peachtopia (2018) WEB-DL 1080p Latino

Datos de la película

  • Calidad: 1080p
  • Audio: Español Latino AC3 2.0 WEB-DL - Ingles AC3 5.1 WEB-DL
  • Subtitulos: No
  • Resolución: 1920x1080
  • Formato: MKV
  • Codec: H.264
  • Encoder: cinemaniahdd
  • Mediainfo: Clic para Mostrar Datos Ver
  • Cats and Peachtopia (2018) WEB-DL 1080p Latino [CNMNHDD].mkv
    Format                      : Matroska
    Format version              : Version 4
    File size                   : 5.01 GiB
    Duration                    : 1 h 27 min
    Overall bit rate            : 8 212 kb/s
    Movie name                  : Cats and Peachtopia (2018) - CinemaniaHDD.Net
    Encoded date                : UTC 2021-09-26 01:56:34
    Writing application         : mkvmerge v56.1.0 ('My Friend') 64-bit
    Writing library             : libebml v1.4.2 + libmatroska v1.6.4

    Video
    ID                          : 1
    Format                      : AVC
    Format/Info                 : Advanced Video Codec
    Format profile              : High@L4.1
    Format settings             : CABAC / 5 Ref Frames
    Format settings, CABAC      : Yes
    Format settings, Reference  : 5 frames
    Codec ID                    : V_MPEG4/ISO/AVC
    Duration                    : 1 h 27 min
    Bit rate                    : 6 549 kb/s
    Width                       : 1 920 pixels
    Height                      : 1080 pixels
    Display aspect ratio        : 2.40:1
    Frame rate mode             : Constant
    Frame rate                  : 24.000 FPS
    Color space                 : YUV
    Chroma subsampling          : 4:2:0
    Bit depth                   : 8 bits
    Scan type                   : Progressive
    Bits/(Pixel*Frame)          : 0.202
    Stream size                 : 4.54 GiB (91%)
    Title                       : CinemaniaHDD.Net
    Writing library             : x264 core 157 r2969 d4099dd
    Language                    : English
    Default                     : Yes
    Forced                      : No

    Audio #1
    ID                          : 2
    Format                      : AC-3
    Format/Info                 : Audio Coding 3
    Commercial name             : Dolby Digital
    Codec ID                    : A_AC3
    Duration                    : 1 h 27 min
    Bit rate mode               : Constant
    Bit rate                    : 384 kb/s
    Channel(s)                  : 2 channels
    Channel layout              : L R
    Sampling rate               : 48.0 kHz
    Frame rate                  : 31.250 FPS (1536 SPF)
    Compression mode            : Lossy
    Stream size                 : 240 MiB (5%)
    Title                       : Español latino [CinemaniaHDD]
    Language                    : Spanish
    Service kind                : Complete Main
    Default                     : Yes
    Forced                      : No

    Audio #2
    ID                          : 3
    Format                      : AC-3
    Format/Info                 : Audio Coding 3
    Commercial name             : Dolby Digital
    Codec ID                    : A_AC3
    Duration                    : 1 h 27 min
    Bit rate mode               : Constant
    Bit rate                    : 384 kb/s
    Channel(s)                  : 6 channels
    Channel layout              : L R C LFE Ls Rs
    Sampling rate               : 48.0 kHz
    Frame rate                  : 31.250 FPS (1536 SPF)
    Compression mode            : Lossy
    Stream size                 : 240 MiB (5%)
    Title                       : Inglés [CinemaniaHDD]
    Language                    : English
    Service kind                : Complete Main
    Default                     : No
    Forced                      : No

     

  • Peso: 5.01 GiB

Sinopsis

Un gato llamado Blanket ha estado viviendo en un apartamento con su hijo, Cloak. Un día, Cloak decide salir de casa para descubrir el legendario paraíso de los gatos. Para encontrar a su hijo, Blanket tendrá que perder el miedo y reconciliarse con su pasado, aunque para ello contará con la ayuda de la gata Macaw.

Ficha técnica

  • Titulo original: 猫与桃花源
  • Fecha de lanzamiento: 05-04-2018 (China)
  • Director: Gary Wang
  • Género: Animación, Familia
  • Puntuación: 5.0 1 votos
  • Duración:
    1h 45m

Video trailer de la película

Enlaces de descarga

Rip de Bluray

Descargar Cats and Peachtopia (2018) WEB-DL 1080p Latino




Aportes de DPeliculasHDmega la pass es:dpeliculashdmega.org Aportes de CinemaniaHD la pass es:cinemaniahdd.com
Guardado en : Animación , Familia

Películas relacionadas

Cats and Peachtopia (2018) WEB-DL 1080p Latino pelicula full hd, Cats and Peachtopia (2018) WEB-DL 1080p Latino mega latino, Cats and Peachtopia (2018) WEB-DL 1080p Latino 4k latino, Cats and Peachtopia (2018) WEB-DL 1080p Latino pelicula completa, Cats and Peachtopia (2018) WEB-DL 1080p Latino descargar gratis, descargar Cats and Peachtopia (2018) WEB-DL 1080p Latino pelicula latino, Cats and Peachtopia (2018) WEB-DL 1080p Latino 1 link mega, Cats and Peachtopia (2018) WEB-DL 1080p Latino 1 link google drive, Cats and Peachtopia (2018) WEB-DL 1080p Latino hd 1080p latino.
Comentarios 0