Blancanieves y El Cazador (2012) Full 1080p Latino

859 vistas
1 estrella2 estrellas3 estrellas4 estrellas5 estrellas (2 votos, promedio: 5,00 de 5)
Cargando…

Información de Blancanieves y El Cazador (2012) Full 1080p Latino

Datos de la película

  • Calidad: Full 1080p
  • Audio: Español Latino DTS 5.1 BLURAY - Ingles DTS 5.1 BLURAY
  • Subtitulos: Español Latino PGS - Ingles PGS
  • Resolución: 1920x1080p
  • Formato: MKV
  • Codec: H.264
  • Encoder: CinefiloCool
  • Mediainfo: Clic para Mostrar Datos Ver
  • Blanca Nieves y El Cazador (2012) EXTENDED Full 1080p Latino.mkv
    Format                      : Matroska
    Format version              : Version 4
    File size                   : 7.02 GiB
    Duration                    : 2 h 11 min
    Overall bit rate            : 7 643 kb/s
    Movie name                  : CinemaniaHDD.Net
    Encoded date                : UTC 2019-02-06 03:55:15
    Writing application         : mkvmerge v30.1.0 ('Forever And More') 64-bit
    Writing library             : libebml v1.3.6 + libmatroska v1.4.9

    Video
    ID                          : 1
    Format                      : AVC
    Format/Info                 : Advanced Video Codec
    Format profile              : [email protected]
    Format settings             : CABAC / 4 Ref Frames
    Format settings, CABAC      : Yes
    Format settings, ReFrames   : 4 frames
    Codec ID                    : V_MPEG4/ISO/AVC
    Duration                    : 2 h 11 min
    Bit rate                    : 5 353 kb/s
    Width                       : 1 920 pixels
    Height                      : 1 080 pixels
    Display aspect ratio        : 16:9
    Frame rate mode             : Constant
    Frame rate                  : 23.976 (24000/1001) FPS
    Color space                 : YUV
    Chroma subsampling          : 4:2:0
    Bit depth                   : 8 bits
    Scan type                   : Progressive
    Bits/(Pixel*Frame)          : 0.108
    Stream size                 : 4.92 GiB (70%)
    Title                       : Full HD1080p [Bluray]
    Writing library             : x264 core 157 r2935 545de2f
    Encoding settings           : cabac=1 / ref=4 / deblock=1:0:0 / analyse=0x3:0x133 / me=esa / subme=10 / psy=1 / psy_rd=1.00:0.00 / mixed_ref=1 / me_range=24 / chroma_me=1 / trellis=2 / 8x8dct=1 / cqm=0 / deadzone=21,11 / fast_pskip=1 / chroma_qp_offset=-2 / threads=34 / lookahead_threads=5 / sliced_threads=0 / nr=0 / decimate=1 / interlaced=0 / bluray_compat=0 / constrained_intra=0 / bframes=8 / b_pyramid=2 / b_adapt=2 / b_bias=0 / direct=3 / weightb=1 / open_gop=0 / weightp=2 / keyint=240 / keyint_min=24 / scenecut=40 / intra_refresh=0 / rc_lookahead=60 / rc=crf / mbtree=1 / crf=20.0 / qcomp=0.60 / qpmin=0 / qpmax=69 / qpstep=4 / vbv_maxrate=62500 / vbv_bufsize=78125 / crf_max=0.0 / nal_hrd=none / filler=0 / ip_ratio=1.40 / aq=1:1.00
    Default                     : Yes
    Forced                      : Yes
    Color range                 : Limited
    Color primaries             : BT.709
    Transfer characteristics    : BT.709
    Matrix coefficients         : BT.709

    Audio #1
    ID                          : 2
    Format                      : DTS
    Format/Info                 : Digital Theater Systems
    Codec ID                    : A_DTS
    Duration                    : 2 h 11 min
    Bit rate mode               : Constant
    Bit rate                    : 768 kb/s
    Channel(s)                  : 6 channels
    Channel layout              : C L R Ls Rs LFE
    Sampling rate               : 48.0 kHz
    Frame rate                  : 93.750 FPS (512 SPF)
    Bit depth                   : 24 bits
    Compression mode            : Lossy
    Stream size                 : 723 MiB (10%)
    Title                       : DTS_5.1_Bluray_Esp
    Language                    : Spanish
    Default                     : Yes
    Forced                      : Yes

    Audio #2
    ID                          : 3
    Format                      : DTS
    Format/Info                 : Digital Theater Systems
    Codec ID                    : A_DTS
    Duration                    : 2 h 11 min
    Bit rate mode               : Constant
    Bit rate                    : 1 509 kb/s
    Channel(s)                  : 6 channels
    Channel layout              : C L R Ls Rs LFE
    Sampling rate               : 48.0 kHz
    Frame rate                  : 93.750 FPS (512 SPF)
    Bit depth                   : 24 bits
    Compression mode            : Lossy
    Stream size                 : 1.39 GiB (20%)
    Title                       : DTS_5.1_Bluray_Eng
    Language                    : English
    Default                     : No
    Forced                      : No

    Text #1
    ID                          : 4
    Format                      : PGS
    Muxing mode                 : zlib
    Codec ID                    : S_HDMV/PGS
    Codec ID/Info               : Picture based subtitle format used on BDs/HD-DVDs
    Duration                    : 2 h 10 min
    Bit rate                    : 15.5 kb/s
    Count of elements           : 1824
    Stream size                 : 14.5 MiB (0%)
    Title                       : Sub_Esp [PGS]
    Language                    : Spanish
    Default                     : No
    Forced                      : No

    Text #2
    ID                          : 5
    Format                      : PGS
    Muxing mode                 : zlib
    Codec ID                    : S_HDMV/PGS
    Codec ID/Info               : Picture based subtitle format used on BDs/HD-DVDs
    Duration                    : 2 h 10 min
    Bit rate                    : 18.9 kb/s
    Count of elements           : 2114
    Stream size                 : 17.6 MiB (0%)
    Title                       : Sub_Eng [PGS]
    Language                    : English
    Default                     : No
    Forced                      : No

    Menu
    00:00:00.000                : :Chapter 1
    00:05:05.055                : :Chapter 2
    00:10:26.793                : :Chapter 3
    00:19:48.854                : :Chapter 4
    00:27:46.456                : :Chapter 5
    00:32:40.459                : :Chapter 6
    00:38:04.491                : :Chapter 7
    00:44:02.098                : :Chapter 8
    00:51:08.691                : :Chapter 9
    00:58:17.911                : :Chapter 10
    01:02:08.600                : :Chapter 11
    01:08:58.009                : :Chapter 12
    01:13:36.579                : :Chapter 13
    01:16:59.115                : :Chapter 14
    01:26:57.045                : :Chapter 15
    01:36:31.035                : :Chapter 16
    01:43:37.837                : :Chapter 17
    01:49:51.502                : :Chapter 18
    01:53:44.776                : :Chapter 19
    02:01:50.136                : :Chapter 20

  • Peso: 7.02 GiB

Sinopsis

Descargar Blancanieves y El Cazador (2012) Full 1080p Latino, Mega, Google Drive, Torrent. Versión oscura del cuento de los hermanos Grimm. Sólo una mujer (Kristen Stewart) supera en belleza a una reina tan malvada (Theron) que está dispuesta a acabar con ella. Pero la pérfida soberana ignora que el cazador (Chris Hemsworth) que debía haberla matado, no sólo le ha salvado la vida, sino que le ha enseñado a defenderse. Poco después, aparecerá en escena el Príncipe Azul (Sam Clafin) que queda hechizado por la belleza y el poder de Blancanieves.

Ficha técnica

Video trailer de la película

Enlaces de descarga

Rip de Bluray

Descargar Blancanieves y El Cazador (2012) Full 1080p Latino




Aportes de DPeliculasHDmega la pass es:dpeliculashdmega.org Aportes de CinemaniaHD la pass es:cinemaniahdd.com

Películas relacionadas

Comentarios 0