×

¿Problemas para descargar con Mozilla, EDGE? Deshabilita la opción "Abrir vinculos en una pestaña nueva" tal como lo muestra ésta imagen.

Barbie (2023) WEB-DL 4K UHD HDR/DV Latino

277 vistas

Información de Barbie (2023) WEB-DL 4K UHD HDR/DV Latino

Datos de la película

  • Calidad: WEBDL
  • Audio: Español Latino AC3 5.1 WEB-DL - Ingles AC3 5.1 WEB-DL
  • Subtitulos: Español Latino SRT- FORZADOS SRT
  • Resolución: 3840x1920p
  • Formato: MKV
  • Codec: HEVC
  • Encoder: Melkor
  • Mediainfo: Clic para Mostrar Datos Ver
  • Barbie (2023) WEB UHD HDR-DV Latino.mkv
    Format                      : Matroska
    Format version              : Version 4
    File size                   : 20.5 GiB
    Duration                    : 1 h 54 min
    Overall bit rate            : 25.8 Mb/s
    Movie name                  : Barbie (2023) CinemaniaHDD.Net
    Encoded date                : UTC 2023-09-11 17:49:58
    Writing application         : mkvmerge v56.1.0 ('My Friend') 64-bit
    Writing library             : libebml v1.4.2 + libmatroska v1.6.4
    Attachments                 : CINEMANIAHD.png
    Site                        : CinemaniaHDD.Net
    Uploader                    : Melkor

    Video
    ID                          : 1
    Format                      : HEVC
    Format/Info                 : High Efficiency Video Coding
    Format profile              : Main 10@L5@High
    HDR format                  : Dolby Vision, Version 1.0, dvhe.08.06, BL+RPU, HDR10 compatible / SMPTE ST 2094 App 4, Version 1, HDR10+ Profile B compatible
    Codec ID                    : V_MPEGH/ISO/HEVC
    Duration                    : 1 h 54 min
    Bit rate                    : 24.2 Mb/s
    Width                       : 3 840 pixels
    Height                      : 1 920 pixels
    Display aspect ratio        : 2.000
    Frame rate mode             : Constant
    Frame rate                  : 23.976 (24000/1001) FPS
    Color space                 : YUV
    Chroma subsampling          : 4:2:0 (Type 2)
    Bit depth                   : 10 bits
    Bits/(Pixel*Frame)          : 0.137
    Stream size                 : 19.3 GiB (94%)
    Title                       : Web 2160p HDR [CinemaniaHDD]
    Language                    : English
    Default                     : Yes
    Forced                      : No
    Color range                 : Limited
    Color primaries             : BT.2020
    Transfer characteristics    : PQ
    Matrix coefficients         : BT.2020 non-constant
    Mastering display color pri : BT.2020
    Mastering display luminance : min: 0.0050 cd/m2, max: 1000 cd/m2
    Maximum Content Light Level : 928 cd/m2
    Maximum Frame-Average Light : 411 cd/m2

    Audio #1
    ID                          : 2
    Format                      : AC-3
    Format/Info                 : Audio Coding 3
    Commercial name             : Dolby Digital
    Codec ID                    : A_AC3
    Duration                    : 1 h 54 min
    Bit rate mode               : Constant
    Bit rate                    : 448 kb/s
    Channel(s)                  : 6 channels
    Channel layout              : L R C LFE Ls Rs
    Sampling rate               : 48.0 kHz
    Frame rate                  : 31.250 FPS (1536 SPF)
    Compression mode            : Lossy
    Delay relative to video     : 936 ms
    Stream size                 : 365 MiB (2%)
    Title                       : Español Latino AC3 [CinemaniaHDD]
    Language                    : Spanish
    Service kind                : Complete Main
    Default                     : Yes
    Forced                      : Yes

    Audio #2
    ID                          : 3
    Format                      : E-AC-3
    Format/Info                 : Enhanced AC-3
    Commercial name             : Dolby Digital Plus
    Codec ID                    : A_EAC3
    Duration                    : 1 h 54 min
    Bit rate mode               : Constant
    Bit rate                    : 384 kb/s
    Channel(s)                  : 6 channels
    Channel layout              : L R C LFE Ls Rs
    Sampling rate               : 48.0 kHz
    Frame rate                  : 31.250 FPS (1536 SPF)
    Compression mode            : Lossy
    Delay relative to video     : 936 ms
    Stream size                 : 313 MiB (1%)
    Title                       : Español Latino EAC3 [CinemaniaHDD]
    Language                    : Spanish
    Service kind                : Complete Main
    Default                     : No
    Forced                      : No

    Audio #3
    ID                          : 4
    Format                      : E-AC-3 JOC
    Format/Info                 : Enhanced AC-3 with Joint Object Coding
    Commercial name             : Dolby Digital Plus with Dolby Atmos
    Codec ID                    : A_EAC3
    Duration                    : 1 h 54 min
    Bit rate mode               : Constant
    Bit rate                    : 768 kb/s
    Channel(s)                  : 6 channels
    Channel layout              : L R C LFE Ls Rs
    Sampling rate               : 48.0 kHz
    Frame rate                  : 31.250 FPS (1536 SPF)
    Compression mode            : Lossy
    Stream size                 : 626 MiB (3%)
    Title                       : Ingles [CinemaniaHDD]
    Language                    : English
    Service kind                : Complete Main
    Default                     : No
    Forced                      : No
    Complexity index            : 16
    Number of dynamic objects   : 15
    Bed channel count           : 1 channel
    Bed channel configuration   : LFE

    Text #1
    ID                          : 5
    Format                      : UTF-8
    Codec ID                    : S_TEXT/UTF8
    Codec ID/Info               : UTF-8 Plain Text
    Duration                    : 1 h 45 min
    Bit rate                    : 6 b/s
    Count of elements           : 202
    Stream size                 : 5.13 KiB (0%)
    Title                       : Forzados-SRT [CinemaniaHDD]
    Language                    : Spanish
    Default                     : Yes
    Forced                      : Yes

    Text #2
    ID                          : 6
    Format                      : UTF-8
    Codec ID                    : S_TEXT/UTF8
    Codec ID/Info               : UTF-8 Plain Text
    Duration                    : 1 h 52 min
    Bit rate                    : 76 b/s
    Count of elements           : 1929
    Stream size                 : 62.9 KiB (0%)
    Title                       : Español-SRT [CinemaniaHDD]
    Language                    : Spanish
    Default                     : No
    Forced                      : No

    Text #3
    ID                          : 7
    Format                      : UTF-8
    Codec ID                    : S_TEXT/UTF8
    Codec ID/Info               : UTF-8 Plain Text
    Duration                    : 1 h 51 min
    Bit rate                    : 88 b/s
    Count of elements           : 2263
    Stream size                 : 72.7 KiB (0%)
    Title                       : Ingles-SRT [CinemaniaHDD]
    Language                    : English
    Default                     : No
    Forced                      : No

    Menu
    00:00:00.000                : Chapter 01
    00:11:14.132                : Chapter 02
    00:19:20.952                : Chapter 03
    00:29:55.420                : Chapter 04
    00:41:41.334                : Chapter 05
    00:51:30.840                : Chapter 06
    01:00:32.966                : Chapter 07
    01:11:06.474                : Chapter 08
    01:20:44.010                : Chapter 09
    01:31:06.758                : Chapter 10
    01:41:48.775                : Chapter 11
    01:47:19.981                : Chapter 12

  • Peso: 20.5 GiB

Sinopsis

Descargar Barbie (2023) WEB-DL 4K UHD HDR/DV Latino. Barbie lleva una vida ideal en Barbielandia, allí todo es perfecto, con chupifiestas llenas de música y color, y todos los días son el mejor día. Claro que Barbie se hace algunas preguntas, cuestiones bastante incómodas que no encajan con el mundo idílico en el que ella y las demás Barbies viven. Cuando Barbie se dé cuenta de que es capaz de apoyar los talones en el suelo, y tener los pies planos, decidirá calzarse unos zapatos sin tacones y viajar hasta el mundo real.

Ficha técnica

Video trailer de la película

Enlaces de descarga

Rip de Bluray

Descargar Barbie (2023) WEB-DL 4K UHD HDR/DV Latino




Aportes de DPeliculasHDmega la pass es:dpeliculashdmega.org Aportes de CinemaniaHD la pass es:cinemaniahdd.com Aportes recientes:cinemaniahdd.net
Guardado en : 4K HDR , 4K UHD , Aventura , Comedia , Fantasía

Películas relacionadas

  • Cómo robar un millón (1966) REMUX 1080p Latino-CMHDD

    Cómo robar un millón (1966) REMUX 1080p Latino-CMHDD

    1966
    Cómo robar un millón (1966) REMUX 1080p Latino-CMHDD

    2h 3m 1966

    Descargar Cómo robar un millón (1966) REMUX 1080p Latino-CMHDD. El padre de Nicole, un legendario coleccionista...

    Director: William Wyler

    Género: Comedia

    Actores: Roger Tréville

  • Milagros Inesperados (1999) 1080p Latino-CMHDD

    Milagros Inesperados (1999) 1080p Latino-CMHDD

    1999
    Milagros Inesperados (1999) 1080p Latino-CMHDD

    3h 9m 1999

    Descargar Milagros Inesperados (1999) 1080p Latino-CMHDD. En el sur de los Estados Unidos, en plena Depresión,...

    Director: Susan Malerstein

    Género: Crimen

    Actores: William Sadler

  • Milagros Inesperados (1999) REMUX 1080p Latino-CMHDD

    Milagros Inesperados (1999) REMUX 1080p Latino-CMHDD

    1999
    Milagros Inesperados (1999) REMUX 1080p Latino-CMHDD

    3h 9m 1999

    Descargar Milagros Inesperados (1999) REMUX 1080p Latino-CMHDD. En el sur de los Estados Unidos, en plena...

    Director: Susan Malerstein

    Género: Crimen

    Actores: William Sadler

descargar Barbie (2023) WEB-DL 4K UHD HDR/DV Latino WEBDL 1080p gratis, Barbie (2023) WEB-DL 4K UHD HDR/DV Latino WEBDL mega 1 link, Barbie (2023) WEB-DL 4K UHD HDR/DV Latino WEBDL pelicula completa, descargar Barbie (2023) WEB-DL 4K UHD HDR/DV Latino WEBDL gratis en mega.

Barbie (2023) WEB-DL 4K UHD HDR/DV Latino pelicula full hd, Barbie (2023) WEB-DL 4K UHD HDR/DV Latino mega latino, Barbie (2023) WEB-DL 4K UHD HDR/DV Latino 4k latino, Barbie (2023) WEB-DL 4K UHD HDR/DV Latino pelicula completa, Barbie (2023) WEB-DL 4K UHD HDR/DV Latino descargar gratis, descargar Barbie (2023) WEB-DL 4K UHD HDR/DV Latino pelicula latino, Barbie (2023) WEB-DL 4K UHD HDR/DV Latino 1 link mega, Barbie (2023) WEB-DL 4K UHD HDR/DV Latino 1 link google drive, Barbie (2023) WEB-DL 4K UHD HDR/DV Latino hd 1080p latino.
Comentarios 0