×

¿Problemas para descargar con Mozilla, EDGE? Deshabilita la opción "Abrir vinculos en una pestaña nueva" tal como lo muestra ésta imagen.

Bambi (1942) HD 1080p Latino – CMHDD

341 vistas

Información de Bambi (1942) HD 1080p Latino – CMHDD

Datos de la película

  • Calidad: 1080p
  • Audio: Español Latino AC3 5.1 BLURAY - Ingles AC3 5.1 BLURAY
  • Subtitulos: Español Latino SRT
  • Resolución: 1454x1080p
  • Formato: MKV
  • Codec: H.264
  • Encoder: Dracarys
  • Mediainfo: Clic para Mostrar Datos Ver
  • Format                      : Matroska
    Format version              : Version 4
    File size                   : 2.24 GiB
    Duration                    : 1 h 9 min
    Overall bit rate            : 4 584 kb/s
    Movie name                  : Bambi (1942) HD 1080p Latino - CMHDD
    Encoded date                : UTC 2020-08-07 20:28:54
    Writing application         : mkvmerge v46.0.0 ('No Deeper Escape') 64-bit
    Writing library             : libebml v1.3.10 + libmatroska v1.5.2 / Lavf58.29.100

    Video
    ID                          : 1
    Format                      : AVC
    Format/Info                 : Advanced Video Codec
    Format profile              : High@L4.1
    Format settings             : CABAC / 5 Ref Frames
    Format settings, CABAC      : Yes
    Format settings, Reference  : 5 frames
    Codec ID                    : V_MPEG4/ISO/AVC
    Duration                    : 1 h 9 min
    Bit rate                    : 3 500 kb/s
    Width                       : 1 454 pixels
    Height                      : 1 080 pixels
    Display aspect ratio        : 4:3
    Frame rate mode             : Constant
    Frame rate                  : 23.976 (24000/1001) FPS
    Color space                 : YUV
    Chroma subsampling          : 4:2:0
    Bit depth                   : 8 bits
    Scan type                   : Progressive
    Bits/(Pixel*Frame)          : 0.093
    Stream size                 : 1.70 GiB (76%)
    Writing library             : x264 core 157 r2935 545de2f
    Encoding settings           : cabac=1 / ref=5 / deblock=1:0:0 / analyse=0x3:0x113 / me=hex / subme=8 / psy=1 / psy_rd=1.00:0.00 / mixed_ref=1 / me_range=16 / chroma_me=1 / trellis=2 / 8x8dct=1 / cqm=0 / deadzone=21,11 / fast_pskip=1 / chroma_qp_offset=-2 / threads=24 / lookahead_threads=4 / sliced_threads=0 / nr=0 / decimate=1 / interlaced=0 / bluray_compat=0 / constrained_intra=0 / bframes=3 / b_pyramid=2 / b_adapt=1 / b_bias=0 / direct=3 / weightb=1 / open_gop=0 / weightp=2 / keyint=240 / keyint_min=24 / scenecut=40 / intra_refresh=0 / rc_lookahead=50 / rc=abr / mbtree=1 / bitrate=3500 / ratetol=1.0 / qcomp=0.60 / qpmin=0 / qpmax=69 / qpstep=4 / vbv_maxrate=62500 / vbv_bufsize=78125 / nal_hrd=none / filler=0 / ip_ratio=1.40 / aq=1:1.00
    Default                     : Yes
    Forced                      : No
    Color range                 : Limited
    Color primaries             : BT.709
    Transfer characteristics    : BT.709
    Matrix coefficients         : BT.709

    Audio #1
    ID                          : 2
    Format                      : AC-3
    Format/Info                 : Audio Coding 3
    Commercial name             : Dolby Digital
    Codec ID                    : A_AC3
    Duration                    : 1 h 9 min
    Bit rate mode               : Constant
    Bit rate                    : 448 kb/s
    Channel(s)                  : 6 channels
    Channel layout              : L R C LFE Ls Rs
    Sampling rate               : 48.0 kHz
    Frame rate                  : 31.250 FPS (1536 SPF)
    Compression mode            : Lossy
    Delay relative to video     : -5 ms
    Stream size                 : 224 MiB (10%)
    Language                    : Spanish
    Service kind                : Complete Main
    Default                     : Yes
    Forced                      : No

    Audio #2
    ID                          : 3
    Format                      : AC-3
    Format/Info                 : Audio Coding 3
    Commercial name             : Dolby Digital
    Codec ID                    : A_AC3
    Duration                    : 1 h 9 min
    Bit rate mode               : Constant
    Bit rate                    : 640 kb/s
    Channel(s)                  : 6 channels
    Channel layout              : L R C LFE Ls Rs
    Sampling rate               : 48.0 kHz
    Frame rate                  : 31.250 FPS (1536 SPF)
    Compression mode            : Lossy
    Delay relative to video     : -5 ms
    Stream size                 : 320 MiB (14%)
    Language                    : English
    Service kind                : Complete Main
    Default                     : No
    Forced                      : No

    Text
    ID                          : 4
    Format                      : UTF-8
    Codec ID                    : S_TEXT/UTF8
    Codec ID/Info               : UTF-8 Plain Text
    Duration                    : 1 h 9 min
    Bit rate                    : 19 b/s
    Count of elements           : 398
    Stream size                 : 9.82 KiB (0%)
    Language                    : Spanish
    Default                     : No
    Forced                      : No

    Menu
    00:00:00.000                : :Chapter 1
    00:01:19.204                : :Chapter 2
    00:05:13.146                : :Chapter 3
    00:08:19.916                : :Chapter 4
    00:09:50.924                : :Chapter 5
    00:13:53.583                : :Chapter 6
    00:15:57.039                : :Chapter 7
    00:19:50.940                : :Chapter 8
    00:24:25.589                : :Chapter 9
    00:27:16.301                : :Chapter 10
    00:28:26.288                : :Chapter 11
    00:30:37.294                : :Chapter 12
    00:34:08.213                : :Chapter 13
    00:35:29.919                : :Chapter 14
    00:41:00.458                : :Chapter 15
    00:41:57.932                : :Chapter 16
    00:43:29.315                : :Chapter 17
    00:46:08.182                : :Chapter 18
    00:47:24.925                : :Chapter 19
    00:52:25.851                : :Chapter 20
    00:53:41.176                : :Chapter 21
    00:55:30.619                : :Chapter 22
    00:57:41.375                : :Chapter 23
    01:03:16.710                : :Chapter 24
    01:07:18.451                : :Chapter 25

  • Peso: 2.24 GiB

Sinopsis

Con los primeros rayos del sol iluminando la pradera, un nuevo príncipe ha nacido en el bosque. Tan pronto como Bambi aprende a dar sus primeros pasos, comienza a jugar con sus nuevos amigos, Tambor, el conejo juguetón, y Flor, la tímida y adorable mofeta. Pero la diversión de patinar sobre el lago helado, de mordisquear las florecillas y de juguetear entre los árboles del bosque será sólo el principio de un largo aprendizaje.

Ficha técnica

Video trailer de la película

Enlaces de descarga

Rip de Bluray

Descargar Bambi (1942) HD 1080p Latino – CMHDD




Aportes de DPeliculasHDmega la pass es:dpeliculashdmega.org Aportes de CinemaniaHD la pass es:cinemaniahdd.com
Guardado en : Animación , Drama , Familia , HD 1080p

Películas relacionadas

  • Corazón de tinta (2008) Full HD 1080p Latino

    Corazón de tinta (2008) Full HD 1080p Latino

    2008
    Corazón de tinta (2008) Full HD 1080p Latino

    1h 46m 2008

    Descargar Corazón de tinta (2008) Full HD 1080p Latino. Mortimer “Mo” Folchart y su hija de 12 años,...

    Director: Sharon Mansfield

    Género: Aventura

    Actores: Terry Cavanagh

  • Corazón de tinta (2008) REMUX 1080p Latino

    Corazón de tinta (2008) REMUX 1080p Latino

    2008
    Corazón de tinta (2008) REMUX 1080p Latino

    1h 46m 2008

    Descargar Corazón de tinta (2008) REMUX 1080p Latino. Mortimer “Mo” Folchart y su hija de 12 años,...

    Director: Sharon Mansfield

    Género: Aventura

    Actores: Tereza Srbová

  • Juego de espías (2001) 1080p Latino

    Juego de espías (2001) 1080p Latino

    2001
    Juego de espías (2001) 1080p Latino

    2h 6m 2001

    Descargar Juego de espías (2001) 1080p Latino. Corre el año 1991, y al veterano agente de la CIA Nathan...

    Director: Tony Scott

    Género: Acción

    Actores: Zsolt Zágoni

  • Hombre de familia (2000) REMUX 1080p Latino

    Hombre de familia (2000) REMUX 1080p Latino

    2000
    Hombre de familia (2000) REMUX 1080p Latino

    2h 1m 2000

    Descargar Hombre de familia (2000) REMUX 1080p Latino. Jack Campbell es un egocéntrico broker de Wall...

    Director: Robert Schroer

    Género: Comedia

    Actores: Wass Stevens

descargar Bambi (1942) HD 1080p Latino – CMHDD 1080p 1080p gratis, Bambi (1942) HD 1080p Latino – CMHDD 1080p mega 1 link, Bambi (1942) HD 1080p Latino – CMHDD 1080p pelicula completa, descargar Bambi (1942) HD 1080p Latino – CMHDD 1080p gratis en mega.

Bambi (1942) HD 1080p Latino – CMHDD pelicula full hd, Bambi (1942) HD 1080p Latino – CMHDD mega latino, Bambi (1942) HD 1080p Latino – CMHDD 4k latino, Bambi (1942) HD 1080p Latino – CMHDD pelicula completa, Bambi (1942) HD 1080p Latino – CMHDD descargar gratis, descargar Bambi (1942) HD 1080p Latino – CMHDD pelicula latino, Bambi (1942) HD 1080p Latino – CMHDD 1 link mega, Bambi (1942) HD 1080p Latino – CMHDD 1 link google drive, Bambi (1942) HD 1080p Latino – CMHDD hd 1080p latino.
Comentarios 0