×

¿Problemas para descargar con Mozilla, EDGE? Deshabilita la opción "Abrir vinculos en una pestaña nueva" tal como lo muestra ésta imagen.

The Girls on the Bus (2024) Temporada 1 MAX WEB-DL 1080p Latino

47 vistas

Información de The Girls on the Bus (2024) Temporada 1 MAX WEB-DL 1080p Latino

Datos de la película

  • Calidad: 1080p
  • Audio: Español Latino AC3 5.1 WEB-DL - Ingles AC3 5.1 WEB-DL
  • Subtitulos: Español Latino SRT- FORZADOS SRT
  • Resolución: 1920x1080
  • Formato: MKV
  • Codec: H.264
  • Encoder: cinemaniahdd
  • Mediainfo: Clic para Mostrar Datos Ver
  • The Girls on the Bus T01E01 MAX WEB-DL 1080p Latino [CNMNHDD].mkv
    Format                      : Matroska
    Format version              : Version 4
    File size                   : 2.46 GiB
    Duration                    : 46 min 6 s
    Overall bit rate            : 7 647 kb/s
    Movie name                  : The Girls on the Bus S01E01 - Pilot [1080p] - CinemaniaHDD.Net
    Encoded date                : UTC 2024-03-14 23:34:33
    Writing application         : mkvmerge v56.1.0 ('My Friend') 64-bit
    Writing library             : libebml v1.4.2 + libmatroska v1.6.4

    Video
    ID                          : 1
    Format                      : AVC
    Format/Info                 : Advanced Video Codec
    Format profile              : High@L4
    Format settings             : CABAC / 4 Ref Frames
    Format settings, CABAC      : Yes
    Format settings, Reference  : 4 frames
    Codec ID                    : V_MPEG4/ISO/AVC
    Duration                    : 46 min 6 s
    Bit rate mode               : Constant
    Bit rate                    : 5 724 kb/s
    Nominal bit rate            : 10 000 kb/s
    Width                       : 1 920 pixels
    Height                      : 960 pixels
    Display aspect ratio        : 2.000
    Frame rate mode             : Constant
    Frame rate                  : 23.976 (24000/1001) FPS
    Color space                 : YUV
    Chroma subsampling          : 4:2:0
    Bit depth                   : 8 bits
    Scan type                   : Progressive
    Bits/(Pixel*Frame)          : 0.130
    Stream size                 : 1.84 GiB (75%)
    Title                       : CinemaniaHDD.Net
    Default                     : Yes
    Forced                      : No
    Color range                 : Limited
    Color primaries             : BT.709
    Transfer characteristics    : BT.709
    Matrix coefficients         : BT.709

    Audio #1
    ID                          : 2
    Format                      : AC-3
    Format/Info                 : Audio Coding 3
    Commercial name             : Dolby Digital
    Codec ID                    : A_AC3
    Duration                    : 46 min 6 s
    Bit rate mode               : Constant
    Bit rate                    : 640 kb/s
    Channel(s)                  : 6 channels
    Channel layout              : L R C LFE Ls Rs
    Sampling rate               : 48.0 kHz
    Frame rate                  : 31.250 FPS (1536 SPF)
    Compression mode            : Lossy
    Stream size                 : 211 MiB (8%)
    Title                       : Español Latino [CinemaniaHDD]
    Language                    : Spanish
    Service kind                : Complete Main
    Default                     : Yes
    Forced                      : No

    Audio #2
    ID                          : 3
    Format                      : E-AC-3
    Format/Info                 : Enhanced AC-3
    Commercial name             : Dolby Digital Plus
    Codec ID                    : A_EAC3
    Duration                    : 46 min 6 s
    Bit rate mode               : Constant
    Bit rate                    : 640 kb/s
    Channel(s)                  : 6 channels
    Channel layout              : L R C LFE Ls Rs
    Sampling rate               : 48.0 kHz
    Frame rate                  : 31.250 FPS (1536 SPF)
    Compression mode            : Lossy
    Stream size                 : 211 MiB (8%)
    Title                       : Español Latino / EAC3 [CinemaniaHDD]
    Language                    : Spanish
    Service kind                : Complete Main
    Default                     : No
    Forced                      : No

    Audio #3
    ID                          : 4
    Format                      : E-AC-3
    Format/Info                 : Enhanced AC-3
    Commercial name             : Dolby Digital Plus
    Codec ID                    : A_EAC3
    Duration                    : 46 min 6 s
    Bit rate mode               : Constant
    Bit rate                    : 640 kb/s
    Channel(s)                  : 6 channels
    Channel layout              : L R C LFE Ls Rs
    Sampling rate               : 48.0 kHz
    Frame rate                  : 31.250 FPS (1536 SPF)
    Compression mode            : Lossy
    Stream size                 : 211 MiB (8%)
    Title                       : Inglés (Original) [CinemaniaHDD]
    Language                    : English
    Service kind                : Complete Main
    Default                     : No
    Forced                      : No

    Text #1
    ID                          : 5
    Format                      : UTF-8
    Codec ID                    : S_TEXT/UTF8
    Codec ID/Info               : UTF-8 Plain Text
    Duration                    : 42 min 23 s
    Bit rate                    : 1 b/s
    Count of elements           : 16
    Stream size                 : 622 Bytes (0%)
    Title                       : Forzados [CinemaniaHDD]
    Language                    : Spanish
    Default                     : No
    Forced                      : Yes

    Text #2
    ID                          : 6
    Format                      : UTF-8
    Codec ID                    : S_TEXT/UTF8
    Codec ID/Info               : UTF-8 Plain Text
    Duration                    : 45 min 35 s
    Bit rate                    : 77 b/s
    Count of elements           : 765
    Stream size                 : 25.8 KiB (0%)
    Title                       : Español Latino [CinemaniaHDD]
    Language                    : Spanish
    Default                     : No
    Forced                      : No

    Text #3
    ID                          : 7
    Format                      : UTF-8
    Codec ID                    : S_TEXT/UTF8
    Codec ID/Info               : UTF-8 Plain Text
    Duration                    : 45 min 58 s
    Bit rate                    : 94 b/s
    Count of elements           : 1046
    Stream size                 : 31.8 KiB (0%)
    Title                       : Inglés [CinemaniaHDD]
    Language                    : English
    Default                     : No
    Forced                      : No

     

  • Peso: 2.46 GiB C/U --- 6 CAPÍTULOS DISPONIBLES

Sinopsis

Cuatro mujeres periodistas encuentran amistad, amor y escándalo mientras siguen un desfile de candidatos fallidos en una campaña presidencial impredecible.

 

6 CAPÍTULOS DISPONIBLES

Ficha técnica

Video trailer de la película

Enlaces de descarga

Rip de Bluray

Descargar The Girls on the Bus (2024) Temporada 1 MAX WEB-DL 1080p Latino




Aportes de DPeliculasHDmega la pass es:dpeliculashdmega.org Aportes de CinemaniaHD la pass es:cinemaniahdd.com Aportes recientes:cinemaniahdd.net
Guardado en : Drama , Series

Películas relacionadas

descargar The Girls on the Bus (2024) Temporada 1 MAX WEB-DL 1080p Latino 1080p 1080p gratis, The Girls on the Bus (2024) Temporada 1 MAX WEB-DL 1080p Latino 1080p mega 1 link, The Girls on the Bus (2024) Temporada 1 MAX WEB-DL 1080p Latino 1080p serie completa, descargar The Girls on the Bus (2024) Temporada 1 MAX WEB-DL 1080p Latino 1080p gratis en mega.

The Girls on the Bus (2024) Temporada 1 MAX WEB-DL 1080p Latino pelicula full hd, The Girls on the Bus (2024) Temporada 1 MAX WEB-DL 1080p Latino mega latino, The Girls on the Bus (2024) Temporada 1 MAX WEB-DL 1080p Latino 4k latino, The Girls on the Bus (2024) Temporada 1 MAX WEB-DL 1080p Latino pelicula completa, The Girls on the Bus (2024) Temporada 1 MAX WEB-DL 1080p Latino descargar gratis, descargar The Girls on the Bus (2024) Temporada 1 MAX WEB-DL 1080p Latino pelicula latino, The Girls on the Bus (2024) Temporada 1 MAX WEB-DL 1080p Latino 1 link mega, The Girls on the Bus (2024) Temporada 1 MAX WEB-DL 1080p Latino 1 link google drive, The Girls on the Bus (2024) Temporada 1 MAX WEB-DL 1080p Latino hd 1080p latino.
Comentarios 0