×

¿Problemas para descargar con Mozilla, EDGE? Deshabilita la opción "Abrir vinculos en una pestaña nueva" tal como lo muestra ésta imagen.

¡Asu Mare! Los amigos (2023) NF WEB-DL 1080p Latino

244 vistas

Información de ¡Asu Mare! Los amigos (2023) NF WEB-DL 1080p Latino

Datos de la película

  • Calidad: WEBDL
  • Audio: Español Latino E-AC3 2.0 Netflix
  • Subtitulos: No
  • Resolución: 1920x1080p
  • Formato: MKV
  • Codec: H.264
  • Encoder: Melkor
  • Mediainfo: Clic para Mostrar Datos Ver
  • Asu Mare! Los amigos (2023) NF WebDL 1080p Latino.mkv
    Format                      : Matroska
    Format version              : Version 4
    File size                   : 4.22 GiB
    Duration                    : 1 h 52 min
    Overall bit rate mode       : Variable
    Overall bit rate            : 5 377 kb/s
    Movie name                  : Asu Mare! Los amigos (2023) CinemaniaHDD.Net
    Encoded date                : UTC 2023-06-04 01:04:49
    Writing application         : mkvmerge v56.1.0 ('My Friend') 64-bit
    Writing library             : libebml v1.4.2 + libmatroska v1.6.4
    Attachments                 : CINEMANIAHD.png
    Site                        : CinemaniaHDD.Net
    Uploader                    : Melkor

    Video
    ID                          : 1
    Format                      : AVC
    Format/Info                 : Advanced Video Codec
    Format profile              : Main@L4
    Format settings             : CABAC / 3 Ref Frames
    Format settings, CABAC      : Yes
    Format settings, Reference  : 3 frames
    Codec ID                    : V_MPEG4/ISO/AVC
    Duration                    : 1 h 52 min
    Bit rate mode               : Variable
    Bit rate                    : 5 000 kb/s
    Maximum bit rate            : 7 500 kb/s
    Width                       : 1 920 pixels
    Height                      : 1 080 pixels
    Display aspect ratio        : 16:9
    Frame rate mode             : Constant
    Frame rate                  : 24.000 FPS
    Color space                 : YUV
    Chroma subsampling          : 4:2:0
    Bit depth                   : 8 bits
    Scan type                   : Progressive
    Bits/(Pixel*Frame)          : 0.100
    Stream size                 : 3.91 GiB (93%)
    Title                       : WEB HD1080p [CinemaniaHDD]
    Writing library             : x264 core 148 r2727 7d026e8
    Encoding settings           : cabac=1 / ref=3 / deblock=1:0:0 / analyse=0x1:0x111 / me=umh / subme=10 / psy=1 / psy_rd=1.00:0.00 / mixed_ref=1 / me_range=24 / chroma_me=1 / trellis=2 / 8x8dct=0 / cqm=0 / deadzone=21,11 / fast_pskip=1 / chroma_qp_offset=-2 / threads=6 / lookahead_threads=1 / sliced_threads=0 / nr=0 / decimate=1 / interlaced=0 / bluray_compat=0 / stitchable=1 / constrained_intra=0 / bframes=2 / b_pyramid=0 / b_adapt=2 / b_bias=0 / direct=3 / weightb=1 / open_gop=0 / weightp=2 / keyint=240 / keyint_min=121 / scenecut=0 / intra_refresh=0 / rc_lookahead=48 / rc=2pass / mbtree=1 / bitrate=5000 / ratetol=1.0 / qcomp=0.50 / qpmin=6 / qpmax=51 / qpstep=4 / cplxblur=20.0 / qblur=0.5 / vbv_maxrate=7500 / vbv_bufsize=10000 / nal_hrd=vbr / filler=0 / ip_ratio=1.40 / aq=1:1.00
    Default                     : Yes
    Forced                      : Yes

    Audio #1
    ID                          : 2
    Format                      : AC-3
    Format/Info                 : Audio Coding 3
    Commercial name             : Dolby Digital
    Codec ID                    : A_AC3
    Duration                    : 1 h 52 min
    Bit rate mode               : Constant
    Bit rate                    : 256 kb/s
    Channel(s)                  : 2 channels
    Channel layout              : L R
    Sampling rate               : 48.0 kHz
    Frame rate                  : 31.250 FPS (1536 SPF)
    Compression mode            : Lossy
    Stream size                 : 206 MiB (5%)
    Title                       : Español Latino [CinemaniaHDD]
    Language                    : Spanish
    Service kind                : Complete Main
    Default                     : Yes
    Forced                      : Yes

    Audio #2
    ID                          : 3
    Format                      : E-AC-3
    Format/Info                 : Enhanced AC-3
    Commercial name             : Dolby Digital Plus
    Codec ID                    : A_EAC3
    Duration                    : 1 h 52 min
    Bit rate mode               : Constant
    Bit rate                    : 128 kb/s
    Channel(s)                  : 2 channels
    Channel layout              : L R
    Sampling rate               : 48.0 kHz
    Frame rate                  : 31.250 FPS (1536 SPF)
    Compression mode            : Lossy
    Stream size                 : 103 MiB (2%)
    Title                       : Español Latino EAC3 [CinemaniaHDD]
    Language                    : Spanish
    Service kind                : Complete Main
    Default                     : No
    Forced                      : No

    Text
    ID                          : 4
    Format                      : UTF-8
    Codec ID                    : S_TEXT/UTF8
    Codec ID/Info               : UTF-8 Plain Text
    Duration                    : 1 h 51 min
    Bit rate                    : 81 b/s
    Count of elements           : 2182
    Stream size                 : 66.8 KiB (0%)
    Title                       : Español-SRT [CinemaniaHDD]
    Language                    : Spanish
    Default                     : No
    Forced                      : No

  • Peso: 4.22 GiB

Sinopsis

Descargar ¡Asu Mare! Los amigos (2023) NF WEB-DL 1080p Latino. Los amigos de Cachin están de vuelta. Tras superar muchas adversidades, una herencia les pondrá a prueba, enfrentándose a divertidas situaciones y oscuros personajes que intentarán boicotear uno de sus más grandes sueños.

Ficha técnica

Video trailer de la película

Enlaces de descarga

Rip de Bluray

Descargar ¡Asu Mare! Los amigos (2023) NF WEB-DL 1080p Latino




Aportes de DPeliculasHDmega la pass es:dpeliculashdmega.org Aportes de CinemaniaHD la pass es:cinemaniahdd.com Aportes recientes:cinemaniahdd.net
Guardado en : Comedy , Netflix

Películas relacionadas

  • Basma (2024) NF WEB-DL 1080p Latino

    Basma (2024) NF WEB-DL 1080p Latino

    2024
    Basma (2024) NF WEB-DL 1080p Latino

    1h 45m 2024

    Descargar Basma (2024) NF WEB-DL 1080p Latino. Una joven saudí que estudia en el extranjero regresa...

    Director: Fatima AlBanawi

    Género: Drama

    Actores: Yasir AlSasi

descargar ¡Asu Mare! Los amigos (2023) NF WEB-DL 1080p Latino WEBDL 1080p gratis, ¡Asu Mare! Los amigos (2023) NF WEB-DL 1080p Latino WEBDL mega 1 link, ¡Asu Mare! Los amigos (2023) NF WEB-DL 1080p Latino WEBDL pelicula completa, descargar ¡Asu Mare! Los amigos (2023) NF WEB-DL 1080p Latino WEBDL gratis en mega.

¡Asu Mare! Los amigos (2023) NF WEB-DL 1080p Latino pelicula full hd, ¡Asu Mare! Los amigos (2023) NF WEB-DL 1080p Latino mega latino, ¡Asu Mare! Los amigos (2023) NF WEB-DL 1080p Latino 4k latino, ¡Asu Mare! Los amigos (2023) NF WEB-DL 1080p Latino pelicula completa, ¡Asu Mare! Los amigos (2023) NF WEB-DL 1080p Latino descargar gratis, descargar ¡Asu Mare! Los amigos (2023) NF WEB-DL 1080p Latino pelicula latino, ¡Asu Mare! Los amigos (2023) NF WEB-DL 1080p Latino 1 link mega, ¡Asu Mare! Los amigos (2023) NF WEB-DL 1080p Latino 1 link google drive, ¡Asu Mare! Los amigos (2023) NF WEB-DL 1080p Latino hd 1080p latino.
Comentarios 0