×

¿Problemas para descargar con Mozilla, EDGE? Deshabilita la opción "Abrir vinculos en una pestaña nueva" tal como lo muestra ésta imagen.

Animales en apuros (2018) WEB-DL 1080p Latino

444 vistas

Información de Animales en apuros (2018) WEB-DL 1080p Latino

Datos de la película

  • Calidad: WEBDL
  • Audio: Español Latino AC3 2.0 WEB-DL - Ingles AC3 5.1 WEB-DL
  • Subtitulos: No
  • Resolución: 1920x1080
  • Formato: MKV
  • Codec: H.264
  • Encoder: cinemaniahdd
  • Mediainfo: Clic para Mostrar Datos Ver
  • Two Tails (2018) WEB-DL 1080p Latino.mkv
    Format                      : Matroska
    Format version              : Version 4
    File size                   : 3.03 GiB
    Duration                    : 1 h 14 min
    Overall bit rate            : 5 832 kb/s
    Movie name                  : Two Tails (2018) - CinemaniaHDD.Net
    Encoded date                : UTC 2020-07-24 02:15:23
    Writing application         : mkvmerge v46.0.0 ('No Deeper Escape') 64-bit
    Writing library             : libebml v1.3.10 + libmatroska v1.5.2

    Video
    ID                          : 1
    Format                      : AVC
    Format/Info                 : Advanced Video Codec
    Format profile              : High@L4
    Format settings             : CABAC / 4 Ref Frames
    Format settings, CABAC      : Yes
    Format settings, Reference  : 4 frames
    Codec ID                    : V_MPEG4/ISO/AVC
    Duration                    : 1 h 14 min
    Bit rate                    : 5 190 kb/s
    Width                       : 1 920 pixels
    Height                      : 1 080 pixels
    Display aspect ratio        : 16:9
    Frame rate mode             : Constant
    Frame rate                  : 24.000 FPS
    Color space                 : YUV
    Chroma subsampling          : 4:2:0
    Bit depth                   : 8 bits
    Scan type                   : Progressive
    Bits/(Pixel*Frame)          : 0.104
    Stream size                 : 2.70 GiB (89%)
    Title                       : CinemaniaHDD.Net
    Language                    : English
    Default                     : Yes
    Forced                      : No
    Color range                 : Limited
    Color primaries             : BT.709
    Transfer characteristics    : BT.709
    Matrix coefficients         : BT.709

    Audio #1
    ID                          : 2
    Format                      : AC-3
    Format/Info                 : Audio Coding 3
    Commercial name             : Dolby Digital
    Codec ID                    : A_AC3
    Duration                    : 1 h 14 min
    Bit rate mode               : Constant
    Bit rate                    : 256 kb/s
    Channel(s)                  : 2 channels
    Channel layout              : L R
    Sampling rate               : 48.0 kHz
    Frame rate                  : 31.250 FPS (1536 SPF)
    Compression mode            : Lossy
    Stream size                 : 136 MiB (4%)
    Title                       : Español latino [CinemaniaHDD]
    Language                    : Spanish
    Service kind                : Complete Main
    Default                     : Yes
    Forced                      : Yes

    Audio #2
    ID                          : 3
    Format                      : AC-3
    Format/Info                 : Audio Coding 3
    Commercial name             : Dolby Digital
    Codec ID                    : A_AC3
    Duration                    : 1 h 14 min
    Bit rate mode               : Constant
    Bit rate                    : 384 kb/s
    Channel(s)                  : 6 channels
    Channel layout              : L R C LFE Ls Rs
    Sampling rate               : 48.0 kHz
    Frame rate                  : 31.250 FPS (1536 SPF)
    Compression mode            : Lossy
    Stream size                 : 204 MiB (7%)
    Title                       : Inglés [CinemaniaHDD]
    Language                    : English
    Service kind                : Complete Main
    Default                     : No
    Forced                      : No

    Menu
    00:00:00.000                : en:1
    00:06:18.958                : en:2
    00:12:40.458                : en:3
    00:18:16.958                : en:4
    00:24:12.498                : en:5
    00:30:13.456                : en:6
    00:36:28.371                : en:7
    00:42:12.871                : en:8
    00:49:04.829                : en:9
    00:54:36.079                : en:10
    01:02:48.329                : en:11
    01:11:24.286                : en:12

     

  • Peso: 3.03 GiB

Sinopsis

Después de convertirse en mejores amigos, un castor y un gato emprenden una misión peligrosa para liberar a sus compañeros animales, que fueron secuestrados por extraterrestres.

Ficha técnica

Video trailer de la película

Enlaces de descarga

Rip de Bluray

Descargar Animales en apuros (2018) WEB-DL 1080p Latino




Aportes de DPeliculasHDmega la pass es:dpeliculashdmega.org Aportes de CinemaniaHD la pass es:cinemaniahdd.com Aportes recientes:cinemaniahdd.net
Guardado en : Animación , Familia

Películas relacionadas

  • ¡Patos! (2023) HD 1080p Latino

    ¡Patos! (2023) HD 1080p Latino

    2023
    ¡Patos! (2023) HD 1080p Latino

    1h 23m 2023

    Descargar ¡Patos! (2023) HD 1080p Latino. Después de que una familia de patos migratorios aterriza...

    Director: Guy-Laurent Homsy

    Género: Acción

    Actores: Zeno Robinson

  • ¡Patos! (2023) PLACEBO Full HD 1080p Latino

    ¡Patos! (2023) PLACEBO Full HD 1080p Latino

    2023
    ¡Patos! (2023) PLACEBO Full HD 1080p Latino

    1h 23m 2023

    Descargar ¡Patos! (2023) PLACEBO Full HD 1080p Latino. Después de que una familia de patos migratorios...

    Director: Guy-Laurent Homsy

    Género: Acción

    Actores: Zeno Robinson

descargar Animales en apuros (2018) WEB-DL 1080p Latino WEBDL 1080p gratis, Animales en apuros (2018) WEB-DL 1080p Latino WEBDL mega 1 link, Animales en apuros (2018) WEB-DL 1080p Latino WEBDL pelicula completa, descargar Animales en apuros (2018) WEB-DL 1080p Latino WEBDL gratis en mega.

Animales en apuros (2018) WEB-DL 1080p Latino pelicula full hd, Animales en apuros (2018) WEB-DL 1080p Latino mega latino, Animales en apuros (2018) WEB-DL 1080p Latino 4k latino, Animales en apuros (2018) WEB-DL 1080p Latino pelicula completa, Animales en apuros (2018) WEB-DL 1080p Latino descargar gratis, descargar Animales en apuros (2018) WEB-DL 1080p Latino pelicula latino, Animales en apuros (2018) WEB-DL 1080p Latino 1 link mega, Animales en apuros (2018) WEB-DL 1080p Latino 1 link google drive, Animales en apuros (2018) WEB-DL 1080p Latino hd 1080p latino.
Comentarios 0