×

¿Problemas para descargar con Mozilla, EDGE? Deshabilita la opción "Abrir vinculos en una pestaña nueva" tal como lo muestra ésta imagen.

Anastasia (1997) REMUX 1080p Latino

209 vistas

Información de Anastasia (1997) REMUX 1080p Latino

Datos de la película

  • Calidad: Full 1080p
  • Audio: Español Latino AC3 5.1 BLURAY - Ingles DTS 5.1 BLURAY
  • Subtitulos: Español Latino PGS - Ingles PGS
  • Resolución: 1920x1080p
  • Formato: MKV
  • Codec: H.264
  • Encoder: CinefiloCool
  • Mediainfo: Clic para Mostrar Datos Ver
  • Anastasia (1997) REMUX 1080p Latino-CMHDD.mkv
    Format                      : Matroska
    Format version              : Version 4
    File size                   : 17.6 GiB
    Duration                    : 1 h 34 min
    Overall bit rate mode       : Variable
    Overall bit rate            : 26.7 Mb/s
    Movie name                  : Anastasia (1997) CinemaniaHDD.Net
    Encoded date                : UTC 2021-03-07 10:46:05
    Writing application         : mkvmerge v51.0.0 ('I Wish') 64-bit
    Writing library             : libebml v1.4.0 + libmatroska v1.6.2
    Attachments                 : CINEMANIAHD.png

    Video
    ID                          : 1
    Format                      : AVC
    Format/Info                 : Advanced Video Codec
    Format profile              : High@L4.1
    Format settings             : CABAC / 2 Ref Frames
    Format settings, CABAC      : Yes
    Format settings, Reference  : 2 frames
    Codec ID                    : V_MPEG4/ISO/AVC
    Duration                    : 1 h 34 min
    Bit rate mode               : Variable
    Bit rate                    : 21.9 Mb/s
    Width                       : 1 920 pixels
    Height                      : 1 080 pixels
    Display aspect ratio        : 16:9
    Frame rate mode             : Constant
    Frame rate                  : 23.976 (24000/1001) FPS
    Color space                 : YUV
    Chroma subsampling          : 4:2:0
    Bit depth                   : 8 bits
    Scan type                   : Progressive
    Bits/(Pixel*Frame)          : 0.441
    Stream size                 : 14.4 GiB (82%)
    Title                       : REMUX HD1080p [CinemaniaHDD]
    Default                     : Yes
    Forced                      : No

    Audio #1
    ID                          : 2
    Format                      : AC-3
    Format/Info                 : Audio Coding 3
    Commercial name             : Dolby Digital
    Codec ID                    : A_AC3
    Duration                    : 1 h 34 min
    Bit rate mode               : Constant
    Bit rate                    : 448 kb/s
    Channel(s)                  : 6 channels
    Channel layout              : L R C LFE Ls Rs
    Sampling rate               : 48.0 kHz
    Frame rate                  : 31.250 FPS (1536 SPF)
    Compression mode            : Lossy
    Stream size                 : 302 MiB (2%)
    Title                       : Español Latino [CinemaniaHDD]
    Language                    : Spanish
    Service kind                : Complete Main
    Default                     : Yes
    Forced                      : No

    Audio #2
    ID                          : 3
    Format                      : DTS XLL
    Format/Info                 : Digital Theater Systems
    Commercial name             : DTS-HD Master Audio
    Codec ID                    : A_DTS
    Duration                    : 1 h 34 min
    Bit rate mode               : Variable
    Bit rate                    : 4 268 kb/s
    Channel(s)                  : 6 channels
    Channel layout              : C L R Ls Rs LFE
    Sampling rate               : 48.0 kHz
    Frame rate                  : 93.750 FPS (512 SPF)
    Bit depth                   : 24 bits
    Compression mode            : Lossless
    Stream size                 : 2.81 GiB (16%)
    Title                       : Ingles [CinemaniaHDD]
    Language                    : English
    Default                     : No
    Forced                      : No

    Text #1
    ID                          : 4
    Format                      : PGS
    Muxing mode                 : zlib
    Codec ID                    : S_HDMV/PGS
    Codec ID/Info               : Picture based subtitle format used on BDs/HD-DVDs
    Duration                    : 1 h 33 min
    Bit rate                    : 30.9 kb/s
    Count of elements           : 2190
    Stream size                 : 20.6 MiB (0%)
    Title                       : Español-PGS [CinemaniaHDD]
    Language                    : Spanish
    Default                     : No
    Forced                      : No

    Text #2
    ID                          : 5
    Format                      : PGS
    Muxing mode                 : zlib
    Codec ID                    : S_HDMV/PGS
    Codec ID/Info               : Picture based subtitle format used on BDs/HD-DVDs
    Duration                    : 1 h 33 min
    Bit rate                    : 31.2 kb/s
    Count of elements           : 2169
    Stream size                 : 20.8 MiB (0%)
    Title                       : Ingles-PGS [CinemaniaHDD]
    Language                    : Spanish
    Default                     : No
    Forced                      : No

    Text #3
    ID                          : 6
    Format                      : UTF-8
    Codec ID                    : S_TEXT/UTF8
    Codec ID/Info               : UTF-8 Plain Text
    Duration                    : 1 h 26 min
    Bit rate                    : 0 b/s
    Count of elements           : 12
    Stream size                 : 277 Bytes (0%)
    Title                       : Forzados-SRT [CinemaniaHDD]
    Language                    : Spanish
    Default                     : Yes
    Forced                      : No

    Text #4
    ID                          : 7
    Format                      : UTF-8
    Codec ID                    : S_TEXT/UTF8
    Codec ID/Info               : UTF-8 Plain Text
    Duration                    : 1 h 33 min
    Bit rate                    : 60 b/s
    Count of elements           : 1095
    Stream size                 : 41.1 KiB (0%)
    Title                       : Español-SRT [CinemaniaHDD]
    Language                    : Spanish
    Default                     : No
    Forced                      : No

    Menu
    00:00:00.000                : en:Imperial Russia
    00:02:23.268                : en:Once upon a December ( Prologue )
    00:03:02.807                : en:Rasputin
    00:06:41.025                : en:Main Title: A Rumor in St. Petersburg
    00:10:10.484                : en:Fork in the Road
    00:12:40.050                : en:Journey to the past
    00:15:57.790                : en:Dimitri and Vladimir's Plan
    00:16:45.754                : en:The old Place
    00:18:07.169                : en:Once upon a december
    00:20:44.660                : en:Dimitri and Anya
    00:25:41.873                : en:Bartok
    00:27:06.041                : en:The return of Rasputin
    00:29:10.457                : en:In the dark of the night
    00:31:26.217                : en:Bound for Paris
    00:35:13.611                : en:Runaway Train
    00:38:08.369                : en:Jump to safety
    00:40:12.201                : en:The long walk
    00:42:38.347                : en:Learn to do it
    00:45:14.044                : en:The Boat to paris
    00:46:20.778                : en:Learn to do it ( Waltz reprise )
    00:49:32.302                : en:Dangerous sleep
    00:52:52.586                : en:Rasputin Loses His Head
    00:54:08.662                : en:Sophie and the Dowager Empress Marie
    00:58:29.631                : en:Paris Holds the Key (To Your Heart)
    01:01:50.790                : en:The Ballet
    01:04:59.020                : en:Dimitri and the Empress
    01:08:53.796                : en:Anastasia
    01:11:09.848                : en:Once Upon a December (Reunion)
    01:12:00.482                : en:Royal Party Plans
    01:13:05.381                : en:Memories
    01:14:20.789                : en:A Change of Heart
    01:17:04.578                : en:Anastasia's Destiny
    01:19:25.051                : en:Rasputin Appears
    01:22:17.682                : en:Long Live the Romanovs
    01:25:10.522                : en:A Perfect Beginning
    01:26:52.415                : en:End Credits
    01:34:10.394                : en:Chapter 37

  • Peso: 17.6 GiB

Sinopsis

Descargar Anastasia (1997) REMUX 1080p Latino. Cuando la sombra de la revolución se cierne sobre Rusia, Anastasia, la hija más joven de la familia real, apenas consigue escapar con vida. Años despúes conoce al joven Dimitri. Cuando se dirigen a París para reclamar los derechos del legado de Anastasia, se verán envueltos en una cruenta lucha contra el malvado monje Rasputín y su sicario, el murciélago Bartok.

NOTA:
Proximamente para usuarios Free, Disponible Solo para VIP!! 🙂

Ficha técnica

Video trailer de la película

Enlaces de descarga

Rip de Bluray

Descargar Anastasia (1997) REMUX 1080p Latino




Aportes de DPeliculasHDmega la pass es:dpeliculashdmega.org Aportes de CinemaniaHD la pass es:cinemaniahdd.com
Guardado en : Animación , Familia , Remux

Películas relacionadas

descargar Anastasia (1997) REMUX 1080p Latino Full 1080p 1080p gratis, Anastasia (1997) REMUX 1080p Latino Full 1080p mega 1 link, Anastasia (1997) REMUX 1080p Latino Full 1080p pelicula completa, descargar Anastasia (1997) REMUX 1080p Latino Full 1080p gratis en mega.

Anastasia (1997) REMUX 1080p Latino pelicula full hd, Anastasia (1997) REMUX 1080p Latino mega latino, Anastasia (1997) REMUX 1080p Latino 4k latino, Anastasia (1997) REMUX 1080p Latino pelicula completa, Anastasia (1997) REMUX 1080p Latino descargar gratis, descargar Anastasia (1997) REMUX 1080p Latino pelicula latino, Anastasia (1997) REMUX 1080p Latino 1 link mega, Anastasia (1997) REMUX 1080p Latino 1 link google drive, Anastasia (1997) REMUX 1080p Latino hd 1080p latino.
Comentarios 0