Amor ciego (2001) Full HD 1080p Latino

42 vistas
1 estrella2 estrellas3 estrellas4 estrellas5 estrellas (Ninguna valoración todavía)
Cargando...

Información de Amor ciego (2001) Full HD 1080p Latino

Datos de la película

  • Calidad: Full 1080p
  • Audio: Español Latino AC3 5.1 BLURAY - Ingles DTS 5.1 BLURAY
  • Subtitulos: Español Latino PGS - Ingles PGS
  • Resolución: 1920x1080p
  • Formato: MKV
  • Codec: H.264
  • Encoder: CinefiloCool
  • Mediainfo: Clic para Mostrar Datos Ver
  • Amor Ciego (2001) Full HD 1080p Latino-CMHDD.mkv
    Format                      : Matroska
    Format version              : Version 4
    File size                   : 11.8 GiB
    Duration                    : 1 h 53 min
    Overall bit rate            : 14.9 Mb/s
    Movie name                  : Shallow Hal (2001) CinemaniaHDD.Net
    Encoded date                : UTC 2021-04-05 18:46:52
    Writing application         : mkvmerge v51.0.0 ('I Wish') 64-bit
    Writing library             : libebml v1.4.0 + libmatroska v1.6.2
    Attachments                 : CINEMANIAHD.png

    Video
    ID                          : 1
    Format                      : AVC
    Format/Info                 : Advanced Video Codec
    Format profile              : High@L4.1
    Format settings             : CABAC / 4 Ref Frames
    Format settings, CABAC      : Yes
    Format settings, Reference  : 4 frames
    Codec ID                    : V_MPEG4/ISO/AVC
    Duration                    : 1 h 53 min
    Bit rate                    : 12.9 Mb/s
    Width                       : 1 920 pixels
    Height                      : 1 080 pixels
    Display aspect ratio        : 16:9
    Frame rate mode             : Constant
    Frame rate                  : 23.976 (24000/1001) FPS
    Color space                 : YUV
    Chroma subsampling          : 4:2:0
    Bit depth                   : 8 bits
    Scan type                   : Progressive
    Bits/(Pixel*Frame)          : 0.259
    Stream size                 : 10.2 GiB (87%)
    Title                       : Full HD1080p [CinemaniaHDD]
    Writing library             : x264 core 157 r2935 545de2f
    Encoding settings           : cabac=1 / ref=4 / deblock=1:0:0 / analyse=0x3:0x133 / me=tesa / subme=11 / psy=1 / psy_rd=1.00:0.00 / mixed_ref=1 / me_range=24 / chroma_me=1 / trellis=2 / 8x8dct=1 / cqm=0 / deadzone=21,11 / fast_pskip=0 / chroma_qp_offset=-2 / threads=24 / lookahead_threads=6 / sliced_threads=0 / nr=0 / decimate=1 / interlaced=0 / bluray_compat=0 / constrained_intra=0 / bframes=16 / b_pyramid=2 / b_adapt=2 / b_bias=0 / direct=3 / weightb=1 / open_gop=0 / weightp=2 / keyint=240 / keyint_min=24 / scenecut=40 / intra_refresh=0 / rc_lookahead=60 / rc=crf / mbtree=1 / crf=20.0 / qcomp=0.60 / qpmin=0 / qpmax=69 / qpstep=4 / vbv_maxrate=62500 / vbv_bufsize=78125 / crf_max=0.0 / nal_hrd=none / filler=0 / ip_ratio=1.40 / aq=1:1.00
    Default                     : Yes
    Forced                      : Yes
    Color range                 : Limited
    Color primaries             : BT.709
    Transfer characteristics    : BT.709
    Matrix coefficients         : BT.709

    Audio #1
    ID                          : 2
    ID in the original source m : 4353 (0x1101)
    Format                      : AC-3
    Format/Info                 : Audio Coding 3
    Commercial name             : Dolby Digital
    Codec ID                    : A_AC3
    Duration                    : 1 h 53 min
    Bit rate mode               : Constant
    Bit rate                    : 448 kb/s
    Channel(s)                  : 6 channels
    Channel layout              : L R C LFE Ls Rs
    Sampling rate               : 48.0 kHz
    Frame rate                  : 31.250 FPS (1536 SPF)
    Compression mode            : Lossy
    Stream size                 : 364 MiB (3%)
    Title                       : Español Latino [CinemaniaHDD]
    Language                    : Spanish
    Service kind                : Complete Main
    Default                     : Yes
    Forced                      : Yes
    Original source medium      : Blu-ray

    Audio #2
    ID                          : 3
    Format                      : DTS
    Format/Info                 : Digital Theater Systems
    Codec ID                    : A_DTS
    Duration                    : 1 h 53 min
    Bit rate mode               : Constant
    Bit rate                    : 1 509 kb/s
    Channel(s)                  : 6 channels
    Channel layout              : C L R Ls Rs LFE
    Sampling rate               : 48.0 kHz
    Frame rate                  : 93.750 FPS (512 SPF)
    Bit depth                   : 24 bits
    Compression mode            : Lossy
    Stream size                 : 1.20 GiB (10%)
    Title                       : Ingles [CinemaniaHDD]
    Language                    : English
    Default                     : No
    Forced                      : No

    Text #1
    ID                          : 4
    Format                      : PGS
    Muxing mode                 : zlib
    Codec ID                    : S_HDMV/PGS
    Codec ID/Info               : Picture based subtitle format used on BDs/HD-DVDs
    Duration                    : 31 min 33 s
    Bit rate                    : 183 b/s
    Count of elements           : 4
    Stream size                 : 42.4 KiB (0%)
    Title                       : Forzados-PGS [CinemaniaHDD]
    Language                    : Spanish
    Default                     : No
    Forced                      : No

    Text #2
    ID                          : 5
    ID in the original source m : 4609 (0x1201)
    Format                      : PGS
    Muxing mode                 : zlib
    Codec ID                    : S_HDMV/PGS
    Codec ID/Info               : Picture based subtitle format used on BDs/HD-DVDs
    Duration                    : 1 h 52 min
    Bit rate                    : 36.8 kb/s
    Count of elements           : 2570
    Stream size                 : 29.7 MiB (0%)
    Title                       : Español-PGS [CinemaniaHDD]
    Language                    : Spanish
    Default                     : No
    Forced                      : No
    Original source medium      : Blu-ray

    Text #3
    ID                          : 6
    ID in the original source m : 4608 (0x1200)
    Format                      : PGS
    Muxing mode                 : zlib
    Codec ID                    : S_HDMV/PGS
    Codec ID/Info               : Picture based subtitle format used on BDs/HD-DVDs
    Duration                    : 1 h 52 min
    Bit rate                    : 51.5 kb/s
    Count of elements           : 3922
    Stream size                 : 41.6 MiB (0%)
    Title                       : Ingles-PGS [CinemaniaHDD]
    Language                    : English
    Default                     : No
    Forced                      : No
    Original source medium      : Blu-ray

    Text #4
    ID                          : 7
    Format                      : UTF-8
    Codec ID                    : S_TEXT/UTF8
    Codec ID/Info               : UTF-8 Plain Text
    Duration                    : 1 h 45 min
    Bit rate                    : 0 b/s
    Count of elements           : 11
    Stream size                 : 309 Bytes (0%)
    Title                       : Forzados-SRT [CinemaniaHDD]
    Language                    : Spanish
    Default                     : Yes
    Forced                      : Yes

    Text #5
    ID                          : 8
    Format                      : UTF-8
    Codec ID                    : S_TEXT/UTF8
    Codec ID/Info               : UTF-8 Plain Text
    Duration                    : 1 h 52 min
    Bit rate                    : 60 b/s
    Count of elements           : 1311
    Stream size                 : 50.3 KiB (0%)
    Title                       : Español-SRT [CinemaniaHDD]
    Language                    : Spanish
    Default                     : No
    Forced                      : No

    Menu
    00:00:00.000                : en:Chapter 01
    00:04:21.552                : en:Chapter 02
    00:06:33.101                : en:Chapter 03
    00:08:44.190                : en:Chapter 04
    00:10:11.819                : en:Chapter 05
    00:12:08.686                : en:Chapter 06
    00:17:32.176                : en:Chapter 07
    00:21:18.777                : en:Chapter 08
    00:27:11.254                : en:Chapter 09
    00:31:58.082                : en:Chapter 10
    00:35:05.144                : en:Chapter 11
    00:38:18.546                : en:Chapter 12
    00:41:55.596                : en:Chapter 13
    00:44:51.063                : en:Chapter 14
    00:48:30.657                : en:Chapter 15
    00:53:33.710                : en:Chapter 16
    00:56:12.827                : en:Chapter 17
    01:01:26.599                : en:Chapter 18
    01:04:30.116                : en:Chapter 19
    01:06:55.678                : en:Chapter 20
    01:10:14.668                : en:Chapter 21
    01:16:46.685                : en:Chapter 22
    01:20:02.422                : en:Chapter 23
    01:23:42.475                : en:Chapter 24
    01:28:33.516                : en:Chapter 25
    01:32:24.372                : en:Chapter 26
    01:39:22.748                : en:Chapter 27
    01:45:47.049                : en:Chapter 28

  • Peso: 11.8 GiB

Sinopsis

Descargar Amor ciego (2001) Full HD 1080p Latino. Hal Larsen es un muchacho superficial que sólo encuentra bellas a las chicas que parecen supermodelos. Sin embargo, después de ser sometido a una sesión de hipnosis por un conocido gurú, sólo será capaz de ver la belleza interior de las mujeres. Rosemary, una chica obesa y bondadosa, se cruzará en su camino y Hal se enamorará locamente de ella.

Ficha técnica

Video trailer de la película

Enlaces de descarga

Rip de Bluray

Descargar Amor ciego (2001) Full HD 1080p Latino




Aportes de DPeliculasHDmega la pass es:dpeliculashdmega.org Aportes de CinemaniaHD la pass es:cinemaniahdd.com

Películas relacionadas

  • Horizon Line (2020) PLACEBO Full HD 1080p Latino

    Horizon Line (2020) PLACEBO Full HD 1080p Latino

    2020
    Horizon Line (2020) PLACEBO Full HD 1080p Latino

    0.0 1h 31m 2020

    Descargar Horizon Line (2020) PLACEBO Full HD 1080p Latino. Una pareja que viaja en un avión pequeño...

    Director: Mikael Marcimain

    Género: FULL 1080p Plateadas

    Actores: Pearl Mackie

  • Madame Curie (2019) HD 1080p Latino

    Madame Curie (2019) HD 1080p Latino

    2019
    Madame Curie (2019) HD 1080p Latino

    0.0 1h 55m 2019

    Descargar Madame Curie (2019) HD 1080p Latino. Cuenta la historia de la ganadora del Premio Nobel Marie...

    Director: Phoebe Billington

    Género: Drama

    Actores: Tim Woodward

  • Madame Curie (2019) PLACEBO Full HD 1080p Latino

    Madame Curie (2019) PLACEBO Full HD 1080p Latino

    2019
    Madame Curie (2019) PLACEBO Full HD 1080p Latino

    0.0 1h 55m 2019

    Descargar Madame Curie (2019) PLACEBO Full HD 1080p Latino. Cuenta la historia de la ganadora del Premio...

    Director: Phoebe Billington

    Género: Drama

    Actores: Tim Woodward

  • Madame Curie (2019) REMUX 1080p Latino

    Madame Curie (2019) REMUX 1080p Latino

    2019
    Madame Curie (2019) REMUX 1080p Latino

    0.0 1h 55m 2019

    Descargar Madame Curie (2019) REMUX 1080p Latino. Cuenta la historia de la ganadora del Premio Nobel...

    Director: Phoebe Billington

    Género: Drama

    Actores: Tim Woodward

  • Proyecto Exorcismo (2019) PLACEBO Full HD 1080p Latino

    Proyecto Exorcismo (2019) PLACEBO Full HD 1080p Latino

    2019
    Proyecto Exorcismo (2019) PLACEBO Full HD 1080p Latino

    0.0 1h 34m 2019

    Descargar Proyecto Exorcismo (2019) PLACEBO Full HD 1080p Latino. Millennials y emprendedores, Drew y...

    Director: Damien LeVeck

    Género: FULL 1080p Plateadas

    Actores: Tiberiu Harsan

Amor ciego (2001) Full HD 1080p Latino pelicula full hd, Amor ciego (2001) Full HD 1080p Latino mega latino, Amor ciego (2001) Full HD 1080p Latino 4k latino, Amor ciego (2001) Full HD 1080p Latino pelicula completa, Amor ciego (2001) Full HD 1080p Latino descargar gratis, descargar Amor ciego (2001) Full HD 1080p Latino pelicula latino, Amor ciego (2001) Full HD 1080p Latino 1 link mega, Amor ciego (2001) Full HD 1080p Latino 1 link google drive, Amor ciego (2001) Full HD 1080p Latino hd 1080p latino.
Comentarios 0