×

¿Problemas para descargar con Mozilla, EDGE? Deshabilita la opción "Abrir vinculos en una pestaña nueva" tal como lo muestra ésta imagen.

Alabama Snake (2020) WEB-DL 1080p Latino

208 vistas

Información de Alabama Snake (2020) WEB-DL 1080p Latino

Datos de la película

  • Calidad: WEBDL
  • Audio: Español Latino AC3 2.0 WEB-DL - Ingles AC3 5.1 WEB-DL
  • Subtitulos: Español Latino SRT - Ingles SRT
  • Resolución: 1920x1080
  • Formato: MKV
  • Codec: H.264
  • Encoder: cinemaniahdd
  • Mediainfo: Clic para Mostrar Datos Ver
  • The Bee Gees, How Can You Mend a Broken Heart (2020) WEB-DL 1080p Latino [CNMNHDD].mkv
    Format                      : Matroska
    Format version              : Version 4
    File size                   : 6.85 GiB
    Duration                    : 1 h 50 min
    Overall bit rate mode       : Variable
    Overall bit rate            : 8 851 kb/s
    Movie name                  : The Bee Gees, How Can You Mend a Broken Heart (2020) - CinemaniaHDD.Net
    Encoded date                : UTC 2020-12-14 01:03:56
    Writing application         : mkvmerge v51.0.0 ('I Wish') 64-bit
    Writing library             : libebml v1.4.0 + libmatroska v1.6.2

    Video
    ID                          : 1
    Format                      : AVC
    Format/Info                 : Advanced Video Codec
    Format profile              : High@L4
    Format settings             : CABAC / 4 Ref Frames
    Format settings, CABAC      : Yes
    Format settings, Reference  : 4 frames
    Codec ID                    : V_MPEG4/ISO/AVC
    Duration                    : 1 h 50 min
    Bit rate mode               : Variable
    Bit rate                    : 8 209 kb/s
    Maximum bit rate            : 12.4 Mb/s
    Width                       : 1 920 pixels
    Height                      : 1 080 pixels
    Display aspect ratio        : 16:9
    Frame rate mode             : Constant
    Frame rate                  : 23.976 (24000/1001) FPS
    Color space                 : YUV
    Chroma subsampling          : 4:2:0
    Bit depth                   : 8 bits
    Scan type                   : Progressive
    Bits/(Pixel*Frame)          : 0.165
    Stream size                 : 6.35 GiB (93%)
    Title                       : CinemaniaHDD
    Language                    : English
    Default                     : Yes
    Forced                      : No
    Color range                 : Limited
    Color primaries             : BT.709
    Transfer characteristics    : BT.709
    Matrix coefficients         : BT.709

    Audio #1
    ID                          : 2
    Format                      : AC-3
    Format/Info                 : Audio Coding 3
    Commercial name             : Dolby Digital
    Codec ID                    : A_AC3
    Duration                    : 1 h 50 min
    Bit rate mode               : Constant
    Bit rate                    : 256 kb/s
    Channel(s)                  : 2 channels
    Channel layout              : L R
    Sampling rate               : 48.0 kHz
    Frame rate                  : 31.250 FPS (1536 SPF)
    Compression mode            : Lossy
    Stream size                 : 203 MiB (3%)
    Title                       : Español latino [CinemaniaHDD]
    Language                    : Spanish
    Service kind                : Complete Main
    Default                     : Yes
    Forced                      : No

    Audio #2
    ID                          : 3
    Format                      : AC-3
    Format/Info                 : Audio Coding 3
    Commercial name             : Dolby Digital
    Codec ID                    : A_AC3
    Duration                    : 1 h 50 min
    Bit rate mode               : Constant
    Bit rate                    : 384 kb/s
    Channel(s)                  : 6 channels
    Channel layout              : L R C LFE Ls Rs
    Sampling rate               : 48.0 kHz
    Frame rate                  : 31.250 FPS (1536 SPF)
    Compression mode            : Lossy
    Stream size                 : 304 MiB (4%)
    Title                       : Inglés [CinemaniaHDD]
    Language                    : English
    Service kind                : Complete Main
    Default                     : No
    Forced                      : No

    Text #1
    ID                          : 4
    Format                      : UTF-8
    Codec ID                    : S_TEXT/UTF8
    Codec ID/Info               : UTF-8 Plain Text
    Duration                    : 1 h 45 min
    Bit rate                    : 90 b/s
    Count of elements           : 2622
    Stream size                 : 69.7 KiB (0%)
    Title                       : Español latino [CC] [CinemaniaHDD]
    Language                    : Spanish
    Default                     : No
    Forced                      : No

    Text #2
    ID                          : 5
    Format                      : UTF-8
    Codec ID                    : S_TEXT/UTF8
    Codec ID/Info               : UTF-8 Plain Text
    Duration                    : 1 h 50 min
    Bit rate                    : 122 b/s
    Count of elements           : 3597
    Stream size                 : 99.4 KiB (0%)
    Title                       : Inglés [CC] [CinemaniaHDD]
    Language                    : English
    Default                     : No
    Forced                      : No

     

  • Peso: 6.85 GiB

Sinopsis

La historia del ministro pentecostal Glenn Summerford, un hombre acusado de intentar asesinar a su esposa con una serpiente de cascabel en la tranquila ciudad de Scottsboro, Alabama, y la investigación y el juicio que persiguió al sur de los Apalaches durante décadas.

Ficha técnica

Video trailer de la película

Enlaces de descarga

Rip de Bluray

Descargar Alabama Snake (2020) WEB-DL 1080p Latino




Aportes de DPeliculasHDmega la pass es:dpeliculashdmega.org Aportes de CinemaniaHD la pass es:cinemaniahdd.com
Guardado en : Crimen , Documental

Películas relacionadas

  • Togo (2022) NF WEB-DL 1080p Latino

    Togo (2022) NF WEB-DL 1080p Latino

    2022
    Togo (2022) NF WEB-DL 1080p Latino

    1h 35m 2022

    Descargar Togo (2022) NF WEB-DL 1080p Latino. Los narcos de poca monta están copando las calles de Montevideo...

    Director: Adrián Caetano

    Género: Crimen

    Actores: Tito Prieto

  • Hot Summer Nights (2017) 4K-SDR WEB-DL 2160p Latino

    Hot Summer Nights (2017) 4K-SDR WEB-DL 2160p Latino

    2018
    Hot Summer Nights (2017) 4K-SDR WEB-DL 2160p Latino

    1h 47m 2018

    Daniel es un tímido adolescente que comienza a vender marihuana, entrando en un mundo tentador pero...

    Director: Stephen W. Moore

    Género: 4K HDR

    Actores: Zack Shires

  • Hot Summer Nights (2017) AMZN WEB-DL 1080p Latino

    Hot Summer Nights (2017) AMZN WEB-DL 1080p Latino

    2018
    Hot Summer Nights (2017) AMZN WEB-DL 1080p Latino

    1h 47m 2018

    Daniel es un tímido adolescente que comienza a vender marihuana, entrando en un mundo tentador pero...

    Director: Stephen W. Moore

    Género: Comedia

    Actores: Zack Shires

  • Wire Room (2022) HD 1080p Latino

    Wire Room (2022) HD 1080p Latino

    2022
    Wire Room (2022) HD 1080p Latino

    1h 37m 2022

    Descargar Wire Room (2022) HD 1080p Latino. Mientras está de servicio en la sala de cables, un agente...

    Director: Matt Eskandari

    Género: Acción

    Actores: Texas Battle

descargar Alabama Snake (2020) WEB-DL 1080p Latino WEBDL 1080p gratis, Alabama Snake (2020) WEB-DL 1080p Latino WEBDL mega 1 link, Alabama Snake (2020) WEB-DL 1080p Latino WEBDL pelicula completa, descargar Alabama Snake (2020) WEB-DL 1080p Latino WEBDL gratis en mega.

Alabama Snake (2020) WEB-DL 1080p Latino pelicula full hd, Alabama Snake (2020) WEB-DL 1080p Latino mega latino, Alabama Snake (2020) WEB-DL 1080p Latino 4k latino, Alabama Snake (2020) WEB-DL 1080p Latino pelicula completa, Alabama Snake (2020) WEB-DL 1080p Latino descargar gratis, descargar Alabama Snake (2020) WEB-DL 1080p Latino pelicula latino, Alabama Snake (2020) WEB-DL 1080p Latino 1 link mega, Alabama Snake (2020) WEB-DL 1080p Latino 1 link google drive, Alabama Snake (2020) WEB-DL 1080p Latino hd 1080p latino.
Comentarios 0