×

¿Problemas para descargar con Mozilla, EDGE? Deshabilita la opción "Abrir vinculos en una pestaña nueva" tal como lo muestra ésta imagen.

iZombie (2016) Temporada 02 Full HD 1080p Latino

187 vistas

Información de iZombie (2016) Temporada 02 Full HD 1080p Latino

Datos de la película

  • Calidad: Full 1080p
  • Audio: Se especifica abajo de la Sinopsis
  • Subtitulos: Español Latino SRT- FORZADOS SRT
  • Resolución: 1920x1080p
  • Formato: MKV
  • Codec: H.264
  • Encoder: CinefiloCool
  • Mediainfo: Clic para Mostrar Datos Ver
  • iZombie S02E01 (2016) Full HD 1080p Latino-CMHDD.mkv
    Format                      : Matroska
    Format version              : Version 4
    File size                   : 3.38 GiB
    Duration                    : 42 min 29 s
    Overall bit rate            : 11.4 Mb/s
    Movie name                  : iZombie S02E01 - Grumpy Old Liv CinemaniaHDD.Net
    Encoded date                : UTC 2021-10-05 16:46:07
    Writing application         : mkvmerge v56.1.0 ('My Friend') 64-bit
    Writing library             : libebml v1.4.2 + libmatroska v1.6.4
    Attachments                 : CINEMANIAHD.png

    Video
    ID                          : 1
    Format                      : AVC
    Format/Info                 : Advanced Video Codec
    Format profile              : High@L4.1
    Format settings             : CABAC / 4 Ref Frames
    Format settings, CABAC      : Yes
    Format settings, Reference  : 4 frames
    Codec ID                    : V_MPEG4/ISO/AVC
    Duration                    : 42 min 29 s
    Bit rate                    : 9 527 kb/s
    Width                       : 1 920 pixels
    Height                      : 1 080 pixels
    Display aspect ratio        : 16:9
    Frame rate mode             : Constant
    Frame rate                  : 23.976 (24000/1001) FPS
    Color space                 : YUV
    Chroma subsampling          : 4:2:0
    Bit depth                   : 8 bits
    Scan type                   : Progressive
    Bits/(Pixel*Frame)          : 0.192
    Stream size                 : 2.83 GiB (84%)
    Title                       : BD HD1080p [CinemaniaHDD.Net]
    Writing library             : x264 core 148 r2705 3f5ed56
    Encoding settings           : cabac=1 / ref=4 / deblock=1:-3:-3 / analyse=0x3:0x113 / me=umh / subme=8 / psy=1 / psy_rd=1.00:0.00 / mixed_ref=1 / me_range=32 / chroma_me=1 / trellis=1 / 8x8dct=1 / cqm=0 / deadzone=21,11 / fast_pskip=1 / chroma_qp_offset=-2 / threads=18 / lookahead_threads=3 / sliced_threads=0 / nr=0 / decimate=1 / interlaced=0 / bluray_compat=0 / constrained_intra=0 / bframes=3 / b_pyramid=2 / b_adapt=2 / b_bias=0 / direct=3 / weightb=1 / open_gop=0 / weightp=2 / keyint=240 / keyint_min=24 / scenecut=40 / intra_refresh=0 / rc_lookahead=50 / rc=2pass / mbtree=1 / bitrate=9527 / ratetol=1.0 / qcomp=0.60 / qpmin=0 / qpmax=69 / qpstep=4 / cplxblur=20.0 / qblur=0.5 / ip_ratio=1.40 / aq=3:0.80
    Default                     : Yes
    Forced                      : Yes

    Audio #1
    ID                          : 2
    Format                      : AC-3
    Format/Info                 : Audio Coding 3
    Commercial name             : Dolby Digital
    Codec ID                    : A_AC3
    Duration                    : 42 min 29 s
    Bit rate mode               : Constant
    Bit rate                    : 256 kb/s
    Channel(s)                  : 2 channels
    Channel layout              : L R
    Sampling rate               : 48.0 kHz
    Frame rate                  : 31.250 FPS (1536 SPF)
    Compression mode            : Lossy
    Stream size                 : 77.8 MiB (2%)
    Title                       : Español Latino [CinemaniaHDD]
    Language                    : Spanish
    Service kind                : Complete Main
    Default                     : Yes
    Forced                      : Yes

    Audio #2
    ID                          : 3
    Format                      : DTS
    Format/Info                 : Digital Theater Systems
    Codec ID                    : A_DTS
    Duration                    : 42 min 29 s
    Bit rate mode               : Constant
    Bit rate                    : 1 509 kb/s
    Channel(s)                  : 6 channels
    Channel layout              : C L R Ls Rs LFE
    Sampling rate               : 48.0 kHz
    Frame rate                  : 93.750 FPS (512 SPF)
    Bit depth                   : 24 bits
    Compression mode            : Lossy
    Stream size                 : 459 MiB (13%)
    Title                       : Ingles [CinemaniaHDD]
    Language                    : English
    Default                     : No
    Forced                      : No

    Text #1
    ID                          : 4
    Format                      : UTF-8
    Codec ID                    : S_TEXT/UTF8
    Codec ID/Info               : UTF-8 Plain Text
    Duration                    : 1 s 901 ms
    Bit rate                    : 134 b/s
    Count of elements           : 1
    Stream size                 : 32.0 Bytes (0%)
    Title                       : Forzados-SRT [CinemaniaHDD]
    Language                    : Spanish
    Default                     : Yes
    Forced                      : Yes

    Text #2
    ID                          : 5
    Format                      : UTF-8
    Codec ID                    : S_TEXT/UTF8
    Codec ID/Info               : UTF-8 Plain Text
    Duration                    : 41 min 56 s
    Bit rate                    : 98 b/s
    Count of elements           : 741
    Stream size                 : 30.1 KiB (0%)
    Title                       : Español-SRT [CinemaniaHDD]
    Language                    : Spanish
    Default                     : No
    Forced                      : No

    Text #3
    ID                          : 6
    Format                      : PGS
    Muxing mode                 : zlib
    Codec ID                    : S_HDMV/PGS
    Codec ID/Info               : Picture based subtitle format used on BDs/HD-DVDs
    Duration                    : 41 min 56 s
    Bit rate                    : 122 kb/s
    Count of elements           : 1706
    Stream size                 : 36.5 MiB (1%)
    Title                       : Ingles-PGS [CinemaniaHDD]
    Language                    : English
    Default                     : No
    Forced                      : No

    Menu
    00:00:00.000                : Chapter 1
    00:04:16.548                : Chapter 2
    00:08:52.031                : Chapter 3
    00:18:26.105                : Chapter 4
    00:24:24.630                : Chapter 5
    00:29:47.244                : Chapter 6
    00:36:14.214                : Chapter 7
    00:42:01.811                : Chapter 8

  • Peso: 3.37 GiB Aprox. C/U | 64.1 GiB Total.

Sinopsis

Descargar iZombie (2016) Temporada 02 Full HD 1080p Latino. Gira en torno a una estudiante de medicina que se convierte en zombie y coge un trabajo de médico forense para tener acceso a los cerebros que debe comer para mantener su humanidad. Pero con cada cerebro que consume, hereda recuerdos del cadáver. De ahí que, con la ayuda de su jefe médico forense y un detective de policía, empiece a resolver casos de homicidio con el fin de callar las voces inquietantes de su cabeza.

Argumento Segunda Temporada: Ravi continúa esforzándose para replicar la cura para revertir la condición de Liv. Mientras tanto, Major es forzado por Vaughn a convertirse en asesino de zombis para proteger a Liv. Peyton regresa a la ciudad y Blaine lucha por seguir en poder de su negocio ahora que es humano. Una vez aclaradas las cosas, Liv y Major retoman su relación amorosa pero son advertidos por Ravi que el virus zombi se contagia durante las relaciones sexuales, por lo que deben buscar otras formas para mantener viva la llama de la pasión. Mientras tanto, Vaughn está decidido a lanzar Super Max al mercado pero debe averiguar cómo aislar el virus zombi del componente de la bebida, por lo que comienza a hacer pruebas en zombis; Peyton le declara la guerra a Stacey Boss, el jefe de la mafia de Seattle mientras Blaine se alía con Ravi y Liv para conseguir el utópium necesario para replicar la cura.

Audio:
Español Latino Editado AC3 2.0 HMAX – Ingles DTS 5.1 Bluray
Audio Latino: CinefiloCool Thanks!!! 😀

Ficha técnica

Video trailer de la película

Enlaces de descarga

Rip de Bluray

Descargar iZombie (2016) Temporada 02 Full HD 1080p Latino




Aportes de DPeliculasHDmega la pass es:dpeliculashdmega.org Aportes de CinemaniaHD la pass es:cinemaniahdd.com

Películas relacionadas

  • Mi amigo el dragón (2016) Full HD 1080p Latino

    Mi amigo el dragón (2016) Full HD 1080p Latino

    2016
    Mi amigo el dragón (2016) Full HD 1080p Latino

    1h 43m 2016

    Descargar Mi amigo el dragón (2016) Full HD 1080p Latino. Durante años el Sr. Meacham, un viejo tallador...

    Director: Joe Nolan

    Género: Aventura

    Actores: William J. Rawbone

  • El discurso del Rey (2010) 1080p Latino

    El discurso del Rey (2010) 1080p Latino

    2010
    El discurso del Rey (2010) 1080p Latino

    1h 58m 2010

    Descargar El discurso del Rey (2010) 1080p Latino. El duque de York se convirtió en rey de Gran Bretaña...

    Director: Tom Hooper

    Género: Drama

    Actores: Tony Earnshaw

  • El discurso del Rey (2010) Full HD 1080p Latino

    El discurso del Rey (2010) Full HD 1080p Latino

    2010
    El discurso del Rey (2010) Full HD 1080p Latino

    1h 58m 2010

    Descargar El discurso del Rey (2010) Full HD 1080p Latino. El duque de York se convirtió en rey de Gran...

    Director: Tom Hooper

    Género: Drama

    Actores: Tony Earnshaw

  • El discurso del Rey (2010) REMUX 1080p Latino

    El discurso del Rey (2010) REMUX 1080p Latino

    2010
    El discurso del Rey (2010) REMUX 1080p Latino

    1h 58m 2010

    Descargar El discurso del Rey (2010) REMUX 1080p Latino. El duque de York se convirtió en rey de Gran...

    Director: Tom Hooper

    Género: Drama

    Actores: Tony Earnshaw

descargar iZombie (2016) Temporada 02 Full HD 1080p Latino Full 1080p 1080p gratis, iZombie (2016) Temporada 02 Full HD 1080p Latino Full 1080p mega 1 link, iZombie (2016) Temporada 02 Full HD 1080p Latino Full 1080p serie completa, descargar iZombie (2016) Temporada 02 Full HD 1080p Latino Full 1080p gratis en mega.

iZombie (2016) Temporada 02 Full HD 1080p Latino pelicula full hd, iZombie (2016) Temporada 02 Full HD 1080p Latino mega latino, iZombie (2016) Temporada 02 Full HD 1080p Latino 4k latino, iZombie (2016) Temporada 02 Full HD 1080p Latino pelicula completa, iZombie (2016) Temporada 02 Full HD 1080p Latino descargar gratis, descargar iZombie (2016) Temporada 02 Full HD 1080p Latino pelicula latino, iZombie (2016) Temporada 02 Full HD 1080p Latino 1 link mega, iZombie (2016) Temporada 02 Full HD 1080p Latino 1 link google drive, iZombie (2016) Temporada 02 Full HD 1080p Latino hd 1080p latino.
Comentarios 0