×

¿Problemas para descargar con Mozilla, EDGE? Deshabilita la opción "Abrir vinculos en una pestaña nueva" tal como lo muestra ésta imagen.

3 Bears Christmas (2019) WEB-DL 1080p Latino

637 vistas

Información de 3 Bears Christmas (2019) WEB-DL 1080p Latino

Datos de la película

  • Calidad: WEBDL
  • Audio: Español Latino AC3 2.0 iTunes - Ingles AC3 5.1 iTunes
  • Subtitulos: No
  • Resolución: 1920x816
  • Formato: MKV
  • Codec: H.264
  • Encoder: cinemaniahdd
  • Mediainfo: Clic para Mostrar Datos Ver
  • 3 Bears Christmas (2019) WEB-DL 1080p Latino.mkv
    Format                      : Matroska
    Format version              : Version 4
    File size                   : 3.07 GiB
    Duration                    : 1 h 23 min
    Overall bit rate            : 5 281 kb/s
    Movie name                  : 3 Bears Christmas (2019) - CinemaniaHDD.Net
    Encoded date                : UTC 2019-12-11 18:13:22
    Writing application         : mkvmerge v38.0.0 ('The Silent Type') 64-bit
    Writing library             : libebml v1.3.9 + libmatroska v1.5.2

    Video
    ID                          : 1
    Format                      : AVC
    Format/Info                 : Advanced Video Codec
    Format profile              : High@L4
    Format settings             : CABAC / 5 Ref Frames
    Format settings, CABAC      : Yes
    Format settings, ReFrames   : 5 frames
    Codec ID                    : V_MPEG4/ISO/AVC
    Duration                    : 1 h 23 min
    Bit rate                    : 4 638 kb/s
    Width                       : 1 920 pixels
    Height                      : 816 pixels
    Display aspect ratio        : 2.35:1
    Frame rate mode             : Constant
    Frame rate                  : 23.976 (24000/1001) FPS
    Color space                 : YUV
    Chroma subsampling          : 4:2:0
    Bit depth                   : 8 bits
    Scan type                   : Progressive
    Bits/(Pixel*Frame)          : 0.123
    Stream size                 : 2.69 GiB (88%)
    Title                       : CinemaniaHDD
    Language                    : English
    Default                     : Yes
    Forced                      : No
    Color range                 : Limited
    Color primaries             : BT.709
    Transfer characteristics    : BT.709
    Matrix coefficients         : BT.709

    Audio #1
    ID                          : 2
    Format                      : AC-3
    Format/Info                 : Audio Coding 3
    Commercial name             : Dolby Digital
    Codec ID                    : A_AC3
    Duration                    : 1 h 23 min
    Bit rate mode               : Constant
    Bit rate                    : 256 kb/s
    Channel(s)                  : 2 channels
    Channel layout              : L R
    Sampling rate               : 48.0 kHz
    Frame rate                  : 31.250 FPS (1536 SPF)
    Bit depth                   : 16 bits
    Compression mode            : Lossy
    Delay relative to video     : -42 ms
    Stream size                 : 152 MiB (5%)
    Title                       : Español latino [CinemaniaHDD]
    Language                    : Spanish
    Service kind                : Complete Main
    Default                     : Yes
    Forced                      : No

    Audio #2
    ID                          : 3
    Format                      : AC-3
    Format/Info                 : Audio Coding 3
    Commercial name             : Dolby Digital
    Codec ID                    : A_AC3
    Duration                    : 1 h 23 min
    Bit rate mode               : Constant
    Bit rate                    : 384 kb/s
    Channel(s)                  : 6 channels
    Channel layout              : L R C LFE Ls Rs
    Sampling rate               : 48.0 kHz
    Frame rate                  : 31.250 FPS (1536 SPF)
    Bit depth                   : 16 bits
    Compression mode            : Lossy
    Delay relative to video     : -42 ms
    Stream size                 : 228 MiB (7%)
    Title                       : Inglés [CinemaniaHDD]
    Language                    : English
    Service kind                : Complete Main
    Default                     : No
    Forced                      : No

    Text
    ID                          : 4
    Format                      : UTF-8
    Codec ID                    : S_TEXT/UTF8
    Codec ID/Info               : UTF-8 Plain Text
    Duration                    : 1 h 21 min
    Bit rate                    : 94 b/s
    Count of elements           : 1421
    Stream size                 : 56.7 KiB (0%)
    Title                       : Inglés [CinemaniaHDD]
    Language                    : English
    Default                     : No
    Forced                      : No

    Menu
    00:00:00.000                : en:Title
    00:07:01.421                : en:The Christmas Eve Party
    00:10:02.601                : en:In Search of Christmas
    00:13:32.811                : en:The Boo Hags Garden
    00:17:18.036                : en:Jacks Search for Goldie
    00:22:33.351                : en:A Christmas Scare
    00:25:51.549                : en:Human Girl
    00:31:20.877                : en:Flight of the Banshee
    00:37:11.227                : en:Stolen Christmas Cookies
    00:43:37.612                : en:A Merry Gypsy Christmas
    00:50:27.021                : en:The Brave Mama’s
    00:55:04.298                : en:The Perfect Gift
    01:00:57.651                : en:The Boo Hags Transformation
    01:02:14.728                : en:Mother Natures Magic
    01:07:57.070                : en:Fun Out Takes

     

  • Peso: 3.07 GiB

Sinopsis

Baby Bear se escabulle en la mañana de Navidad para encontrar el regalo perfecto para sus padres, Mama y Papa Bear, solo para cruzarse con una bruja malvada que lo transforma en un humano.

Ficha técnica

  • Titulo original: 3 Bears Christmas
  • Fecha de lanzamiento: 24-09-2019 (United States of America)
  • Género: Familia

Video trailer de la película

Enlaces de descarga

Rip de Bluray

Descargar 3 Bears Christmas (2019) WEB-DL 1080p Latino




Aportes de DPeliculasHDmega la pass es:dpeliculashdmega.org Aportes de CinemaniaHD la pass es:cinemaniahdd.com
Guardado en : Familia

Películas relacionadas

descargar 3 Bears Christmas (2019) WEB-DL 1080p Latino WEBDL 1080p gratis, 3 Bears Christmas (2019) WEB-DL 1080p Latino WEBDL mega 1 link, 3 Bears Christmas (2019) WEB-DL 1080p Latino WEBDL pelicula completa, descargar 3 Bears Christmas (2019) WEB-DL 1080p Latino WEBDL gratis en mega.

3 Bears Christmas (2019) WEB-DL 1080p Latino pelicula full hd, 3 Bears Christmas (2019) WEB-DL 1080p Latino mega latino, 3 Bears Christmas (2019) WEB-DL 1080p Latino 4k latino, 3 Bears Christmas (2019) WEB-DL 1080p Latino pelicula completa, 3 Bears Christmas (2019) WEB-DL 1080p Latino descargar gratis, descargar 3 Bears Christmas (2019) WEB-DL 1080p Latino pelicula latino, 3 Bears Christmas (2019) WEB-DL 1080p Latino 1 link mega, 3 Bears Christmas (2019) WEB-DL 1080p Latino 1 link google drive, 3 Bears Christmas (2019) WEB-DL 1080p Latino hd 1080p latino.
Comentarios 0