Zona hostil (2017) Full 1080p Castellano

3.035 vistas
1 estrella2 estrellas3 estrellas4 estrellas5 estrellas (1 votos, promedio: 4,00 de 5)
Cargando…

Información de Zona hostil (2017) Full 1080p Castellano

Datos de la película

  • Calidad: Full 1080p
  • Audio: Español DTS 5.1 BLURAY
  • Subtitulos: No
  • Resolución: 1920x1080p
  • Formato: MKV
  • Codec: H.264
  • Encoder: Dpelis
  • Mediainfo: Clic para Mostrar Datos Ver
  • Zona.hostil.2017.Full.Castellano.mkv
    Format                      : Matroska
    Format version              : Version 4 / Version 2
    File size                   : 2.62 GiB
    Duration                    : 1 h 33 min
    Overall bit rate            : 4 025 kb/s
    Movie name                  : DPeliculasHDMega.ORG
    Encoded date                : UTC 2017-08-09 21:32:26 / UTC 2017-08-08T21:24:59Z
    Writing application         : mkvmerge v10.0.0 ('To Drown In You') 64bit
    Writing library             : libebml v1.3.4 + libmatroska v1.4.5 / Lavf57.7.2

    Video
    ID                          : 1
    Format                      : AVC
    Format/Info                 : Advanced Video Codec
    Format profile              : High@L4.1
    Format settings, CABAC      : Yes
    Format settings, ReFrames   : 4 frames
    Codec ID                    : V_MPEG4/ISO/AVC
    Duration                    : 1 h 33 min
    Bit rate                    : 3 305 kb/s
    Width                       : 1 920 pixels
    Height                      : 1 080 pixels
    Display aspect ratio        : 16:9
    Frame rate mode             : Constant
    Frame rate                  : 24.000 FPS
    Color space                 : YUV
    Chroma subsampling          : 4:2:0
    Bit depth                   : 8 bits
    Scan type                   : Progressive
    Bits/(Pixel*Frame)          : 0.066
    Stream size                 : 2.15 GiB (82%)
    Writing library             : x264 core 148 r2708 86b7198
    Encoding settings           : cabac=1 / ref=4 / deblock=1:0:0 / analyse=0x3:0x133 / me=esa / subme=10 / psy=1 / psy_rd=1.00:0.00 / mixed_ref=1 / me_range=24 / chroma_me=1 / trellis=2 / 8x8dct=1 / cqm=0 / deadzone=21,11 / fast_pskip=1 / chroma_qp_offset=-2 / threads=12 / lookahead_threads=2 / sliced_threads=0 / nr=0 / decimate=1 / interlaced=0 / bluray_compat=0 / constrained_intra=0 / bframes=8 / b_pyramid=2 / b_adapt=2 / b_bias=0 / direct=3 / weightb=1 / open_gop=0 / weightp=2 / keyint=240 / keyint_min=24 / scenecut=40 / intra_refresh=0 / rc_lookahead=60 / rc=crf / mbtree=1 / crf=20.0 / qcomp=0.60 / qpmin=0 / qpmax=69 / qpstep=4 / vbv_maxrate=62500 / vbv_bufsize=78125 / crf_max=0.0 / nal_hrd=none / filler=0 / ip_ratio=1.40 / aq=1:1.00
    Default                     : Yes
    Forced                      : No
    Color range                 : Limited
    Color primaries             : BT.709
    Transfer characteristics    : BT.709
    Matrix coefficients         : BT.709
    Statistics Tags Issue       : mkvmerge v10.0.0 ('To Drown In You') 64bit 2017-08-09 21:32:26 / mkvmerge v10.0.0 ('To Drown In You') 64bit 2017-08-09 21:32:26 / UTC 2017-08-08T21:24:59Z
    FromStats_BitRate           : 3373451
    FromStats_Duration          : 01:33:06.042000000
    FromStats_FrameCount        : 134065
    FromStats_StreamSize        : 2355529988

    Audio
    ID                          : 2
    Format                      : AC-3
    Format/Info                 : Audio Coding 3
    Format settings, Endianness : Big
    Codec ID                    : A_AC3
    Duration                    : 1 h 33 min
    Bit rate mode               : Constant
    Bit rate                    : 640 kb/s
    Channel(s)                  : 6 channels
    Channel positions           : Front: L C R, Side: L R, LFE
    Sampling rate               : 48.0 kHz
    Frame rate                  : 31.250 FPS (1536 spf)
    Bit depth                   : 16 bits
    Compression mode            : Lossy
    Delay relative to video     : 1 s 83 ms
    Stream size                 : 426 MiB (16%)
    Title                       : Surround
    Language                    : Spanish
    Service kind                : Complete Main
    Default                     : Yes
    Forced                      : No
    Statistics Tags Issue       : mkvmerge v10.0.0 ('To Drown In You') 64bit 2017-08-09 21:32:26 / mkvmerge v10.0.0 ('To Drown In You') 64bit 2017-08-09 21:32:26 / UTC 2017-08-08T21:24:59Z
    FromStats_BitRate           : 640000
    FromStats_Duration          : 01:33:04.960000000
    FromStats_FrameCount        : 174530
    FromStats_StreamSize        : 446796800

    Text
    ID                          : 3
    Format                      : PGS
    Muxing mode                 : zlib
    Codec ID                    : S_HDMV/PGS
    Codec ID/Info               : Picture based subtitle format used on BDs/HD-DVDs
    Language                    : English
    Default                     : No
    Forced                      : No
    Statistics Tags Issue       : mkvmerge v10.0.0 ('To Drown In You') 64bit 2017-08-09 21:32:26 / mkvmerge v10.0.0 ('To Drown In You') 64bit 2017-08-09 21:32:26 / UTC 2017-08-08T21:24:59Z
    FromStats_BitRate           : 9987
    FromStats_Duration          : 01:28:12.875000000
    FromStats_FrameCount        : 2228
    FromStats_StreamSize        : 6607855

    Menu
    00:00:00.000                : :Chapter 1
    00:05:05.583                : :Chapter 2
    00:11:25.833                : :Chapter 3
    00:17:00.292                : :Chapter 4
    00:24:02.833                : :Chapter 5
    00:29:09.458                : :Chapter 6
    00:33:59.333                : :Chapter 7
    00:41:28.917                : :Chapter 8
    00:46:11.750                : :Chapter 9
    00:52:40.750                : :Chapter 10
    00:58:17.667                : :Chapter 11
    01:02:54.958                : :Chapter 12
    01:09:13.250                : :Chapter 13
    01:15:19.292                : :Chapter 14
    01:21:32.583                : :Chapter 15
    01:27:21.042                : :Chapter 16

  • Peso: 2.62 GB

Sinopsis

A un convoy americano escoltado por la Legión española le estalla una mina al norte de Afganistán, y el inexperto Teniente Conte (Raúl Mérida) queda al mando de una dotación para proteger a los heridos hasta que los evacuen. La capitán Varela (Ariadna Gil), médico militar, acude al rescate en un helicóptero del Ejército Español, pero el terreno cede durante el aterrizaje y el helicóptero vuelca, dejando a los rescatadores atrapados junto a los legionarios en medio de la nada. El impulsivo Comandante Ledesma (Antonio Garrido) propone un arriesgado plan para rescatarlos a todos y, además, llevarse el aparato siniestrado.

Ficha técnica

Video trailer de la película

Enlaces de descarga

Rip de Bluray

Descargar Zona hostil (2017) Full 1080p Castellano




Aportes de DPeliculasHDmega la pass es:dpeliculashdmega.org Aportes de CinemaniaHD la pass es:cinemaniahdd.com

Películas relacionadas

  • Mision: Imposible 2 (2000) Full 1080p Latino

    2000
    Mision: Imposible 2 (2000) Full 1080p Latino

    3.0 2h 3m 2000

    Descargar Mision: Imposible 2 (2000) Full 1080p Latino, Mega, Google Drive. El agente especial Ethan...

    Director: William H. Burton Jr.

    Género: Acción

    Actores: William Mapother

  • Mision: Imposible (1996) Full 1080p Latino

    1996
    Mision: Imposible (1996) Full 1080p Latino

    3.7 1h 50m 1996

    Mission: Impossible (1996) Full 1080p Latino, Mega, Google Drive. Ethan Hunt es un superespía capaz...

    Director: Nick Moore

    Género: Acción

    Actores: Ving Rhames

  • Los increíbles 2 (2018) Full 1080p Latino

    2018
    Los increíbles 2 (2018) Full 1080p Latino

    4.4 1h 58m 2018

    Helen tiene que liderar una campaña para que los superhéroes regresen, mientras Bob vive su vida "normal"...

    Director: Seong-Young Kim

    Género: Acción

    Actores: Usher

  • El Justiciero 2 (2018) Full 1080p Latino

    2018
    El Justiciero 2 (2018) Full 1080p Latino

    5.0 2h 0m 2018

    Descargar El Justiciero 2 (2018) Full 1080p Latino, Mega, Google Drive. Robert McCall (Denzel Washington)...

    Director: Donald Sparks

    Género: Acción

    Actores: Wesley Pereira

Comentarios 3
  • Renzo - 10 agosto, 2017

    Bien aclarado respecto al idioma castellano, por las ostias y onda vital. Gracias

  • seba - 10 agosto, 2017

    saldra en latino ???

    gracias

    • dpelis - 10 agosto, 2017

      no creo. es una pelicula Española