×

¿Problemas para descargar con Mozilla, EDGE? Deshabilita la opción "Abrir vinculos en una pestaña nueva" tal como lo muestra ésta imagen.

Zona de choque (2020) REMUX 1080p Latino

183 vistas

Información de Zona de choque (2020) REMUX 1080p Latino

Datos de la película

  • Calidad: Full 1080p
  • Audio: Se especifica abajo de la Sinopsis
  • Subtitulos: Español Latino SRT- FORZADOS SRT
  • Resolución: 1920x1080p
  • Formato: MKV
  • Codec: H.264
  • Encoder: Melkor
  • Mediainfo: Clic para Mostrar Datos Ver
  • Zona De Choque (2020) REMUX 1080p Latino.mkv
    Format                      : Matroska
    Format version              : Version 4
    File size                   : 22.2 GiB
    Duration                    : 1 h 48 min
    Overall bit rate mode       : Variable
    Overall bit rate            : 29.4 Mb/s
    Movie name                  : Enforcement (2020) [Shorta] CinemaniaHDD.Net
    Encoded date                : UTC 2022-04-12 07:05:15
    Writing application         : mkvmerge v56.1.0 ('My Friend') 64-bit
    Writing library             : libebml v1.4.2 + libmatroska v1.6.4
    Attachments                 : CINEMANIAHD.png

    Video
    ID                          : 1
    ID in the original source m : 4113 (0x1011)
    Format                      : AVC
    Format/Info                 : Advanced Video Codec
    Format profile              : High@L4.1
    Format settings             : CABAC / 4 Ref Frames
    Format settings, CABAC      : Yes
    Format settings, Reference  : 4 frames
    Codec ID                    : V_MPEG4/ISO/AVC
    Duration                    : 1 h 48 min
    Bit rate mode               : Variable
    Bit rate                    : 25.0 Mb/s
    Maximum bit rate            : 30.0 Mb/s
    Width                       : 1 920 pixels
    Height                      : 1 080 pixels
    Display aspect ratio        : 16:9
    Frame rate mode             : Constant
    Frame rate                  : 24.000 FPS
    Color space                 : YUV
    Chroma subsampling          : 4:2:0
    Bit depth                   : 8 bits
    Scan type                   : Progressive
    Bits/(Pixel*Frame)          : 0.503
    Stream size                 : 18.9 GiB (85%)
    Title                       : REMUX HD1080p [CinemaniaHDD]
    Default                     : Yes
    Forced                      : Yes
    Color range                 : Limited
    Color primaries             : BT.709
    Transfer characteristics    : BT.709
    Matrix coefficients         : BT.709
    Original source medium      : Blu-ray

    Audio #1
    ID                          : 2
    Format                      : AC-3
    Format/Info                 : Audio Coding 3
    Commercial name             : Dolby Digital
    Codec ID                    : A_AC3
    Duration                    : 1 h 48 min
    Bit rate mode               : Constant
    Bit rate                    : 256 kb/s
    Channel(s)                  : 2 channels
    Channel layout              : L R
    Sampling rate               : 48.0 kHz
    Frame rate                  : 31.250 FPS (1536 SPF)
    Compression mode            : Lossy
    Stream size                 : 198 MiB (1%)
    Title                       : Español Latino AC3 [CinemaniaHDD]
    Language                    : Spanish
    Service kind                : Complete Main
    Default                     : Yes
    Forced                      : Yes

    Audio #2
    ID                          : 3
    ID in the original source m : 4353 (0x1101)
    Format                      : DTS XLL
    Format/Info                 : Digital Theater Systems
    Commercial name             : DTS-HD Master Audio
    Codec ID                    : A_DTS
    Duration                    : 1 h 48 min
    Bit rate mode               : Variable
    Bit rate                    : 3 969 kb/s
    Channel(s)                  : 6 channels
    Channel layout              : C L R Ls Rs LFE
    Sampling rate               : 48.0 kHz
    Frame rate                  : 93.750 FPS (512 SPF)
    Bit depth                   : 24 bits
    Compression mode            : Lossless
    Stream size                 : 3.00 GiB (13%)
    Title                       : Danes [CinemaniaHDD]
    Language                    : Danish
    Default                     : No
    Forced                      : No
    Original source medium      : Blu-ray

    Audio #3
    ID                          : 4
    Format                      : E-AC-3
    Format/Info                 : Enhanced AC-3
    Commercial name             : Dolby Digital Plus
    Codec ID                    : A_EAC3
    Duration                    : 1 h 48 min
    Bit rate mode               : Constant
    Bit rate                    : 128 kb/s
    Channel(s)                  : 2 channels
    Channel layout              : L R
    Sampling rate               : 48.0 kHz
    Frame rate                  : 31.250 FPS (1536 SPF)
    Compression mode            : Lossy
    Delay relative to video     : 9 s 65 ms
    Stream size                 : 98.9 MiB (0%)
    Title                       : Español Latino EAC3 [CinemaniaHDD]
    Language                    : Spanish
    Service kind                : Complete Main
    Default                     : No
    Forced                      : No

    Text #1
    ID                          : 5
    Format                      : UTF-8
    Codec ID                    : S_TEXT/UTF8
    Codec ID/Info               : UTF-8 Plain Text
    Duration                    : 1 h 19 min
    Bit rate                    : 0 b/s
    Count of elements           : 5
    Stream size                 : 86.0 Bytes (0%)
    Title                       : Forzados-SRT [CinemaniaHDD]
    Language                    : Spanish
    Default                     : Yes
    Forced                      : Yes

    Text #2
    ID                          : 6
    Format                      : UTF-8
    Codec ID                    : S_TEXT/UTF8
    Codec ID/Info               : UTF-8 Plain Text
    Duration                    : 1 h 43 min
    Bit rate                    : 37 b/s
    Count of elements           : 880
    Stream size                 : 28.5 KiB (0%)
    Title                       : Español-SRT [CinemaniaHDD]
    Language                    : Spanish
    Default                     : No
    Forced                      : No

    Text #3
    ID                          : 7
    Format                      : UTF-8
    Codec ID                    : S_TEXT/UTF8
    Codec ID/Info               : UTF-8 Plain Text
    Duration                    : 1 h 43 min
    Bit rate                    : 35 b/s
    Count of elements           : 750
    Stream size                 : 26.8 KiB (0%)
    Title                       : Ingles [CinemaniaHDD]
    Language                    : English
    Default                     : No
    Forced                      : No

    Menu
    00:00:00.000                : Chapter 01
    00:13:04.291                : Chapter 02
    00:23:30.583                : Chapter 03
    00:33:11.791                : Chapter 04
    00:47:25.833                : Chapter 05
    00:59:39.458                : Chapter 06
    01:14:06.625                : Chapter 07
    01:25:48.458                : Chapter 08
    01:38:52.208                : Chapter 09

  • Peso: 22.2 GiB

Sinopsis

Descargar Zona de choque (2020) REMUX 1080p Latino. No se conocen los detalles de lo que sucedió exactamente mientras Talib Ben Hassi estaba bajo custodia policial. Los agentes de policía Jens y Mike patrullaban por el ghetto de Svalegården cuando escucharon por primera vez por radio la noticia de la muerte del joven muchacho, dando así comienzo a una serie de altercados por parte de su vecindario. Ambos agentes acabarían viéndose implicados en lo sucedido posteriormente.

Español Latino EAC3 & AC3 2.0 WebDL – Danes DTS-HD 5.1 BD

Ficha técnica

Video trailer de la película

Enlaces de descarga

Rip de Bluray

Descargar Zona de choque (2020) REMUX 1080p Latino




Aportes de DPeliculasHDmega la pass es:dpeliculashdmega.org Aportes de CinemaniaHD la pass es:cinemaniahdd.com
Guardado en : Acción , Crimen , Remux , Suspenso

Películas relacionadas

  • Ajin: Semi-Humano (2017) AMZN WEB-DL 1080p Latino

    Ajin: Semi-Humano (2017) AMZN WEB-DL 1080p Latino

    2017
    Ajin: Semi-Humano (2017) AMZN WEB-DL 1080p Latino

    1h 50m 2017

    Descargar Ajin: Semi-Humano (2017) AMZN WEB-DL 1080p Latino. En el manga original, aparece una persona...

    Director: Toru Yamamoto

    Género: Acción

    Actores: Yuki Yamada

  • Ajin: Semi-Humano (2017) REMUX 1080p Latino

    Ajin: Semi-Humano (2017) REMUX 1080p Latino

    2017
    Ajin: Semi-Humano (2017) REMUX 1080p Latino

    1h 50m 2017

    Descargar Ajin: Semi-Humano (2017) REMUX 1080p Latino. En el manga original, aparece una persona inmortal...

    Director: Toru Yamamoto

    Género: Acción

    Actores: Yuki Yamada

  • Zola (2020) HD 1080p Latino

    Zola (2020) HD 1080p Latino

    2020
    Zola (2020) HD 1080p Latino

    1h 26m 2020

    Descargar Zola (2020) HD 1080p Latino. Una camarera accede a acompañar a una bailarina exótica, su...

    Director: Sheri Davani

    Género: Comedia

    Actores: Ts Madison

  • Zola (2020) PLACEBO Full HD 1080p Latino

    Zola (2020) PLACEBO Full HD 1080p Latino

    2020
    Zola (2020) PLACEBO Full HD 1080p Latino

    1h 26m 2020

    Descargar Zola (2020) PLACEBO Full HD 1080p Latino. Una camarera accede a acompañar a una bailarina...

    Director: Sheri Davani

    Género: Comedia

    Actores: Ts Madison

descargar Zona de choque (2020) REMUX 1080p Latino Full 1080p 1080p gratis, Zona de choque (2020) REMUX 1080p Latino Full 1080p mega 1 link, Zona de choque (2020) REMUX 1080p Latino Full 1080p pelicula completa, descargar Zona de choque (2020) REMUX 1080p Latino Full 1080p gratis en mega.

Zona de choque (2020) REMUX 1080p Latino pelicula full hd, Zona de choque (2020) REMUX 1080p Latino mega latino, Zona de choque (2020) REMUX 1080p Latino 4k latino, Zona de choque (2020) REMUX 1080p Latino pelicula completa, Zona de choque (2020) REMUX 1080p Latino descargar gratis, descargar Zona de choque (2020) REMUX 1080p Latino pelicula latino, Zona de choque (2020) REMUX 1080p Latino 1 link mega, Zona de choque (2020) REMUX 1080p Latino 1 link google drive, Zona de choque (2020) REMUX 1080p Latino hd 1080p latino.
Comentarios 0