×

¿Problemas para descargar con Mozilla, EDGE? Deshabilita la opción "Abrir vinculos en una pestaña nueva" tal como lo muestra ésta imagen.

Z-O-M-B-I-E-S 2 (2020) WEB-DL 1080p Latino

1.301 vistas

Información de Z-O-M-B-I-E-S 2 (2020) WEB-DL 1080p Latino

Datos de la película

  • Calidad: 1080p
  • Audio: Español Latino AC3 2.0 WEB-DL - Ingles AC3 5.1 WEB-DL
  • Subtitulos: Español Latino SRT- FORZADOS SRT
  • Resolución: 1920x800
  • Formato: MKV
  • Codec: H.264
  • Encoder: cinemaniahdd
  • Mediainfo: Clic para Mostrar Datos Ver
  • ZOMBIES 2 (2020) WEB-DL 1080p Latino.mkv
    Format                      : Matroska
    Format version              : Version 4
    File size                   : 4.51 GiB
    Duration                    : 1 h 23 min
    Overall bit rate mode       : Variable
    Overall bit rate            : 7 708 kb/s
    Movie name                  : ZOMBIES 2 (2020) [1080p] - CinemaniaHDD.Net
    Encoded date                : UTC 2022-07-17 00:05:54
    Writing application         : mkvmerge v59.0.0 ('Shining Star') 64-bit
    Writing library             : libebml v1.4.2 + libmatroska v1.6.4

    Video
    ID                          : 1
    Format                      : AVC
    Format/Info                 : Advanced Video Codec
    Format profile              : High@L4
    Format settings             : CABAC / 4 Ref Frames
    Format settings, CABAC      : Yes
    Format settings, Reference  : 4 frames
    Codec ID                    : V_MPEG4/ISO/AVC
    Duration                    : 1 h 23 min
    Bit rate mode               : Variable
    Bit rate                    : 7 324 kb/s
    Maximum bit rate            : 12.7 Mb/s
    Width                       : 1 920 pixels
    Height                      : 1 080 pixels
    Display aspect ratio        : 16:9
    Frame rate mode             : Constant
    Frame rate                  : 23.976 (24000/1001) FPS
    Color space                 : YUV
    Chroma subsampling          : 4:2:0
    Bit depth                   : 8 bits
    Scan type                   : Progressive
    Bits/(Pixel*Frame)          : 0.147
    Stream size                 : 4.29 GiB (95%)
    Title                       : CinemaniaHDD
    Default                     : Yes
    Forced                      : No
    Color range                 : Limited
    Color primaries             : BT.709
    Transfer characteristics    : BT.709
    Matrix coefficients         : BT.709

    Audio #1
    ID                          : 2
    Format                      : AAC LC
    Format/Info                 : Advanced Audio Codec Low Complexity
    Codec ID                    : A_AAC-2
    Duration                    : 1 h 23 min
    Bit rate                    : 125 kb/s
    Channel(s)                  : 2 channels
    Channel layout              : L R
    Sampling rate               : 48.0 kHz
    Frame rate                  : 46.875 FPS (1024 SPF)
    Compression mode            : Lossy
    Stream size                 : 75.1 MiB (2%)
    Title                       : Español latino [CinemaniaHDD]
    Language                    : Spanish
    Default                     : No
    Forced                      : No

    Audio #2
    ID                          : 3
    Format                      : E-AC-3
    Format/Info                 : Enhanced AC-3
    Commercial name             : Dolby Digital Plus
    Codec ID                    : A_EAC3
    Duration                    : 1 h 23 min
    Bit rate mode               : Constant
    Bit rate                    : 256 kb/s
    Channel(s)                  : 6 channels
    Channel layout              : L R C LFE Ls Rs
    Sampling rate               : 48.0 kHz
    Frame rate                  : 31.250 FPS (1536 SPF)
    Compression mode            : Lossy
    Stream size                 : 153 MiB (3%)
    Title                       : Inglés [CinemaniaHDD]
    Language                    : English
    Service kind                : Complete Main
    Default                     : No
    Forced                      : No

    Text #1
    ID                          : 4
    Format                      : UTF-8
    Codec ID                    : S_TEXT/UTF8
    Codec ID/Info               : UTF-8 Plain Text
    Duration                    : 1 h 22 min
    Bit rate                    : 32 b/s
    Count of elements           : 533
    Stream size                 : 19.5 KiB (0%)
    Title                       : Forzados [CinemaniaHDD]
    Language                    : Spanish
    Default                     : No
    Forced                      : Yes

    Text #2
    ID                          : 5
    Format                      : UTF-8
    Codec ID                    : S_TEXT/UTF8
    Codec ID/Info               : UTF-8 Plain Text
    Duration                    : 1 h 23 min
    Bit rate                    : 84 b/s
    Count of elements           : 1482
    Stream size                 : 51.3 KiB (0%)
    Title                       : Español latino [CinemaniaHDD]
    Language                    : Spanish
    Default                     : No
    Forced                      : No

     

     

  • Peso: 4.51 GiB

Sinopsis

Zed y Addison están de vuelta en Seabrook High, donde, después de un semestre innovador, continúan dirigiendo tanto a su escuela como a su comunidad hacia la unidad. Pero la llegada de un nuevo grupo de extraños, misteriosos hombres lobo, amenaza con sacudir la paz recién descubierta y provoca una grieta en el romance en ciernes de Zed y Addison.

Ficha técnica

  • Titulo original: Z-O-M-B-I-E-S 2
  • Fecha de lanzamiento: 14-02-2020 (United States of America)
  • Director: Paul Hoen
  • Género: Música, Romance

Video trailer de la película

Enlaces de descarga

Rip de Bluray

Descargar Z-O-M-B-I-E-S 2 (2020) WEB-DL 1080p Latino




Aportes de DPeliculasHDmega la pass es:dpeliculashdmega.org Aportes de CinemaniaHD la pass es:cinemaniahdd.com
Guardado en : Música , Romance

Películas relacionadas

  • After: Amor infinito (2022) AMZN WEB-DL 1080p Latino

    After: Amor infinito (2022) AMZN WEB-DL 1080p Latino

    2022
    After: Amor infinito (2022) AMZN WEB-DL 1080p Latino

    1h 35m 2022

    Descargar After: Amor infinito (2022) AMZN WEB-DL 1080p Latino. El amor de Tessa y Hardin nunca ha sido...

    Director: Castille Landon

    Género: Drama

    Actores: Velizar Nikolaev Biney

  • Yo era famoso (2022) NF WEB-DL 1080p Latino

    Yo era famoso (2022) NF WEB-DL 1080p Latino

    2022
    Yo era famoso (2022) NF WEB-DL 1080p Latino

    1h 44m 2022

    Descargar Yo era famoso (2022) NF WEB-DL 1080p Latino. Vince, una ex estrella del pop desesperada que...

    Director: Júlia Gallart Sunyer

    Género: Comedia

    Actores: Racheal Ofori

  • Elvis (2022) HD 1080p Latino

    Elvis (2022) HD 1080p Latino

    2022
    Elvis (2022) HD 1080p Latino

    2h 39m 2022

    Descargar Elvis (2022) HD 1080p Latino. La película explora la vida y la música de Elvis Presley (Butler)...

    Director: Baz Luhrmann

    Género: Drama

    Actores: Yola

descargar Z-O-M-B-I-E-S 2 (2020) WEB-DL 1080p Latino 1080p 1080p gratis, Z-O-M-B-I-E-S 2 (2020) WEB-DL 1080p Latino 1080p mega 1 link, Z-O-M-B-I-E-S 2 (2020) WEB-DL 1080p Latino 1080p pelicula completa, descargar Z-O-M-B-I-E-S 2 (2020) WEB-DL 1080p Latino 1080p gratis en mega.

Z-O-M-B-I-E-S 2 (2020) WEB-DL 1080p Latino pelicula full hd, Z-O-M-B-I-E-S 2 (2020) WEB-DL 1080p Latino mega latino, Z-O-M-B-I-E-S 2 (2020) WEB-DL 1080p Latino 4k latino, Z-O-M-B-I-E-S 2 (2020) WEB-DL 1080p Latino pelicula completa, Z-O-M-B-I-E-S 2 (2020) WEB-DL 1080p Latino descargar gratis, descargar Z-O-M-B-I-E-S 2 (2020) WEB-DL 1080p Latino pelicula latino, Z-O-M-B-I-E-S 2 (2020) WEB-DL 1080p Latino 1 link mega, Z-O-M-B-I-E-S 2 (2020) WEB-DL 1080p Latino 1 link google drive, Z-O-M-B-I-E-S 2 (2020) WEB-DL 1080p Latino hd 1080p latino.
Comentarios 0