Zombieland (2009) Full 1080p Latino

799 vistas
1 estrella2 estrellas3 estrellas4 estrellas5 estrellas (5 votos, promedio: 4,20 de 5)
Cargando…

Información de Zombieland (2009) Full 1080p Latino

Datos de la película

  • Calidad: Full 1080p
  • Audio: Español Latino AC3 5.1 BLURAY - Ingles DTS 5.1 BLURAY
  • Subtitulos: Español Latino PGS - Ingles PGS
  • Resolución: 1920x1080p
  • Formato: MKV
  • Codec: H.264
  • Encoder: Dracarys
  • Mediainfo: Clic para Mostrar Datos Ver
  • Latino.mkv
    Format                      : Matroska
    Format version              : Version 4
    File size                   : 3.69 GiB
    Duration                    : 1 h 27 min
    Overall bit rate            : 6 027 kb/s
    Movie name                  : CinemaniaHDD.net
    Encoded date                : UTC 2018-12-31 01:29:34
    Writing application         : mkvmerge v29.0.0 ('Like It Or Not') 64-bit
    Writing library             : libebml v1.3.6 + libmatroska v1.4.9 / Lavf58.20.100

    Video
    ID                          : 1
    Format                      : AVC
    Format/Info                 : Advanced Video Codec
    Format profile              : [email protected]
    Format settings             : CABAC / 4 Ref Frames
    Format settings, CABAC      : Yes
    Format settings, ReFrames   : 4 frames
    Codec ID                    : V_MPEG4/ISO/AVC
    Duration                    : 1 h 27 min
    Bit rate                    : 3 864 kb/s
    Width                       : 1 920 pixels
    Height                      : 1 080 pixels
    Display aspect ratio        : 16:9
    Frame rate mode             : Constant
    Frame rate                  : 23.976 (24000/1001) FPS
    Color space                 : YUV
    Chroma subsampling          : 4:2:0
    Bit depth                   : 8 bits
    Scan type                   : Progressive
    Bits/(Pixel*Frame)          : 0.078
    Stream size                 : 2.37 GiB (64%)
    Writing library             : x264 core 157 r2935 545de2f
    Encoding settings           : cabac=1 / ref=4 / deblock=1:0:0 / analyse=0x1:0x131 / me=esa / subme=10 / psy=1 / psy_rd=1.00:0.00 / mixed_ref=1 / me_range=24 / chroma_me=1 / trellis=2 / 8x8dct=0 / cqm=0 / deadzone=21,11 / fast_pskip=1 / chroma_qp_offset=-2 / threads=34 / lookahead_threads=5 / sliced_threads=0 / nr=0 / decimate=1 / interlaced=0 / bluray_compat=0 / constrained_intra=0 / bframes=8 / b_pyramid=2 / b_adapt=2 / b_bias=0 / direct=3 / weightb=1 / open_gop=0 / weightp=2 / keyint=240 / keyint_min=24 / scenecut=40 / intra_refresh=0 / rc_lookahead=60 / rc=crf / mbtree=1 / crf=20.0 / qcomp=0.60 / qpmin=0 / qpmax=69 / qpstep=4 / vbv_maxrate=20000 / vbv_bufsize=25000 / crf_max=0.0 / nal_hrd=none / filler=0 / ip_ratio=1.40 / aq=1:1.00
    Language                    : English
    Default                     : Yes
    Forced                      : No
    Color range                 : Limited
    Color primaries             : BT.709
    Transfer characteristics    : BT.709
    Matrix coefficients         : BT.709

    Audio #1
    ID                          : 2
    Format                      : AC-3
    Format/Info                 : Audio Coding 3
    Commercial name             : Dolby Digital
    Codec ID                    : A_AC3
    Duration                    : 1 h 27 min
    Bit rate mode               : Constant
    Bit rate                    : 640 kb/s
    Channel(s)                  : 6 channels
    Channel layout              : L R C LFE Ls Rs
    Sampling rate               : 48.0 kHz
    Frame rate                  : 31.250 FPS (1536 SPF)
    Bit depth                   : 16 bits
    Compression mode            : Lossy
    Stream size                 : 401 MiB (11%)
    Language                    : Spanish
    Service kind                : Complete Main
    Default                     : Yes
    Forced                      : No

    Audio #2
    ID                          : 3
    Format                      : DTS
    Format/Info                 : Digital Theater Systems
    Codec ID                    : A_DTS
    Duration                    : 1 h 27 min
    Bit rate mode               : Constant
    Bit rate                    : 1 509 kb/s
    Channel(s)                  : 6 channels
    Channel layout              : C L R Ls Rs LFE
    Sampling rate               : 48.0 kHz
    Frame rate                  : 93.750 FPS (512 SPF)
    Bit depth                   : 24 bits
    Compression mode            : Lossy
    Stream size                 : 947 MiB (25%)
    Language                    : English
    Default                     : No
    Forced                      : No

    Text
    ID                          : 4
    Format                      : PGS
    Muxing mode                 : zlib
    Codec ID                    : S_HDMV/PGS
    Codec ID/Info               : Picture based subtitle format used on BDs/HD-DVDs
    Duration                    : 1 h 27 min
    Bit rate                    : 26.5 kb/s
    Count of elements           : 1796
    Stream size                 : 16.5 MiB (0%)
    Language                    : Spanish
    Default                     : No
    Forced                      : No

    Menu
    00:00:00.000                : :Chapter 1
    00:00:33.951                : :Chapter 2
    00:02:19.306                : :Chapter 3
    00:07:15.226                : :Chapter 4
    00:16:22.023                : :Chapter 5
    00:21:13.564                : :Chapter 6
    00:22:20.172                : :Chapter 7
    00:23:08.512                : :Chapter 8
    00:23:34.580                : :Chapter 9
    00:24:05.611                : :Chapter 10
    00:30:50.515                : :Chapter 11
    00:34:17.055                : :Chapter 12
    00:46:35.001                : :Chapter 13
    00:52:54.797                : :Chapter 14
    01:05:54.159                : :Chapter 15
    01:07:01.684                : :Chapter 16
    01:11:10.183                : :Chapter 17
    01:12:21.754                : :Chapter 18
    01:14:23.584                : :Chapter 19
    01:14:53.072                : :Chapter 20
    01:17:19.552                : :Chapter 21
    01:19:13.249                : :Chapter 22
    01:19:46.073                : :Chapter 23

     

  • Peso: 3.69 GiB

Sinopsis

En un mundo plagado de zombis, Columbus es un gallina, un joven que se encuentra aterrorizado por la situación, pero cuando te juegas el ser comido por los zombies, el miedo puede mantenerte vivo. De hecho su cobardía precisamente le ha permitido que sus sesos aún se mantengan en su cabeza. Entonces un día conoce a Tallahassse, un macarra caza zombies cuya única determinación en su vida es lograr el último Twinkie (dulce americano) en la tierra. Cuando ambos unen fuerzas con Wichita y Little Rock, que también han encontrado una manera original de sobrevivir en ese caos, tendrán que elegir qué es peor: si confiar los unos en los otros para sobrevivir o sucumbir ante los zombies.

Ficha técnica

Video trailer de la película

Enlaces de descarga

Rip de Bluray

Descargar Zombieland (2009) Full 1080p Latino




Aportes de DPeliculasHDmega la pass es:dpeliculashdmega.org Aportes de CinemaniaHD la pass es:cinemaniahdd.com

Películas relacionadas

  • Escuadrón suicida (2016) Extended Full 1080p Latino

    2016
    Escuadrón suicida (2016) Extended Full 1080p Latino

    5.0 2 h 14 min 2016

    Descargar Escuadrón suicida (2016) Extended 1080p Latino, Mega, Google Drive, Torrent. Mientras el gobierno...

    Director: Shane B. Scott

    Género: Acción

    Actores: William Hainsworth

  • Time Freak (2018) Full 1080p Español Latino

    2018
    Time Freak (2018) Full 1080p Español Latino

    4.0 1h 44m 2018

    Descargar Time Freak (2018) Full 1080p Latino, Mega, Google Drive, Torrent. Un joven estudiante de física...

    Director: Andrew Bowler

    Género: Ciencia ficción

    Actores: William Peltz

  • El odio que das (2018) Full 1080p Latino

    2018
    El odio que das (2018) Full 1080p Latino

    3.8 2h 13m 2018

    Criada en un barrio azotado por la pobreza, una niña de 16 años llamada Starr ahora asiste a una escuela...

    Director: Jr.

    Género: Crimen

    Actores: Tony Vaughn

Comentarios 1
  • Bluem3th - 02 enero, 2019

    Gracias! A compartir la torrent lo más que pueda, quizás, 5:1. Saludos!