×

¿Problemas para descargar con Mozilla, EDGE? Deshabilita la opción "Abrir vinculos en una pestaña nueva" tal como lo muestra ésta imagen.

Zombieland Double Tap (2019) REMUX 4K HDR Latino – CMHDD

150 vistas

Información de Zombieland Double Tap (2019) REMUX 4K HDR Latino – CMHDD

Datos de la película

  • Calidad:
  • Audio: Español Latino AC3 5.1 BLURAY - Ingles DTS-HD Master 7.1 BLURAY
  • Subtitulos: Español Latino PGS
  • Resolución: 3840x2160p
  • Formato: MKV
  • Codec: H.264
  • Encoder: Dracarys
  • Mediainfo: Clic para Mostrar Datos Ver
  • Format                      : Matroska
    Format version              : Version 4
    File size                   : 41.6 GiB
    Duration                    : 1 h 39 min
    Overall bit rate mode       : Variable
    Overall bit rate            : 60.2 Mb/s
    Movie name                  : Zombieland: Double Tap (2019) REMUX 4K HDR Latino - CMHDD
    Encoded date                : UTC 2024-01-11 14:04:13
    Writing application         : mkvmerge v47.0.0 ('Black Flag') 64-bit
    Writing library             : libebml v1.3.10 + libmatroska v1.5.2

    Video
    ID                          : 1
    Format                      : HEVC
    Format/Info                 : High Efficiency Video Coding
    Format profile              : Main 10@L5.1@High
    HDR format                  : SMPTE ST 2086, HDR10 compatible
    Codec ID                    : V_MPEGH/ISO/HEVC
    Duration                    : 1 h 39 min
    Bit rate                    : 54.2 Mb/s
    Width                       : 3 840 pixels
    Height                      : 2 160 pixels
    Display aspect ratio        : 16:9
    Frame rate mode             : Constant
    Frame rate                  : 23.976 (24000/1001) FPS
    Color space                 : YUV
    Chroma subsampling          : 4:2:0 (Type 2)
    Bit depth                   : 10 bits
    Bits/(Pixel*Frame)          : 0.273
    Stream size                 : 37.5 GiB (90%)
    Default                     : Yes
    Forced                      : No
    Color range                 : Limited
    Color primaries             : BT.2020
    Transfer characteristics    : PQ
    Matrix coefficients         : BT.2020 non-constant
    Mastering display color pri : Display P3
    Mastering display luminance : min: 0.0050 cd/m2, max: 4000 cd/m2
    Maximum Content Light Level : 1001 cd/m2
    Maximum Frame-Average Light : 387 cd/m2

    Audio #1
    ID                          : 2
    Format                      : AC-3
    Format/Info                 : Audio Coding 3
    Commercial name             : Dolby Digital
    Codec ID                    : A_AC3
    Duration                    : 1 h 39 min
    Bit rate mode               : Constant
    Bit rate                    : 640 kb/s
    Channel(s)                  : 6 channels
    Channel layout              : L R C LFE Ls Rs
    Sampling rate               : 48.0 kHz
    Frame rate                  : 31.250 FPS (1536 SPF)
    Compression mode            : Lossy
    Stream size                 : 453 MiB (1%)
    Language                    : Spanish
    Service kind                : Complete Main
    Default                     : Yes
    Forced                      : Yes

    Audio #2
    ID                          : 3
    Format                      : DTS XLL
    Format/Info                 : Digital Theater Systems
    Commercial name             : DTS-HD Master Audio
    Codec ID                    : A_DTS
    Duration                    : 1 h 39 min
    Bit rate mode               : Variable
    Bit rate                    : 5 292 kb/s
    Channel(s)                  : 8 channels
    Channel layout              : C L R LFE Lb Rb Lss Rss
    Sampling rate               : 48.0 kHz
    Frame rate                  : 93.750 FPS (512 SPF)
    Bit depth                   : 24 bits
    Compression mode            : Lossless
    Stream size                 : 3.66 GiB (9%)
    Language                    : English
    Default                     : No
    Forced                      : No

    Text #1
    ID                          : 4
    Format                      : UTF-8
    Codec ID                    : S_TEXT/UTF8
    Codec ID/Info               : UTF-8 Plain Text
    Duration                    : 1 h 30 min
    Bit rate                    : 1 b/s
    Frame rate                  : 0.006 FPS
    Count of elements           : 35
    Stream size                 : 823 Bytes (0%)
    Title                       : Forzados
    Language                    : Spanish
    Default                     : Yes
    Forced                      : Yes

    Text #2
    ID                          : 5
    Format                      : UTF-8
    Codec ID                    : S_TEXT/UTF8
    Codec ID/Info               : UTF-8 Plain Text
    Duration                    : 1 h 38 min
    Bit rate                    : 86 b/s
    Frame rate                  : 0.289 FPS
    Count of elements           : 1704
    Stream size                 : 62.3 KiB (0%)
    Language                    : Spanish
    Default                     : No
    Forced                      : No

    Text #3
    ID                          : 6
    Format                      : PGS
    Muxing mode                 : zlib
    Codec ID                    : S_HDMV/PGS
    Codec ID/Info               : Picture based subtitle format used on BDs/HD-DVDs
    Duration                    : 1 h 38 min
    Bit rate                    : 43.8 kb/s
    Frame rate                  : 0.567 FPS
    Count of elements           : 3343
    Stream size                 : 30.8 MiB (0%)
    Language                    : Spanish
    Default                     : No
    Forced                      : No

    Menu
    00:00:00.000                : Chapter 01
    00:05:00.675                : Chapter 02
    00:11:08.001                : Chapter 03
    00:15:24.507                : Chapter 04
    00:21:16.192                : Chapter 05
    00:29:15.545                : Chapter 06
    00:36:55.422                : Chapter 07
    00:44:03.015                : Chapter 08
    00:50:12.968                : Chapter 09
    00:57:52.511                : Chapter 10
    01:03:51.870                : Chapter 11
    01:06:50.048                : Chapter 12
    01:10:12.125                : Chapter 13
    01:15:40.119                : Chapter 14
    01:23:45.312                : Chapter 15
    01:29:48.216                : Chapter 16

     

  • Peso: 41.6 GiB

Sinopsis

En esta secuela y empleando el característico sentido del humor del que hizo gala «Zombieland», el grupo de protagonistas tendrá que viajar desde la Casa Blanca hasta el corazón de los Estados Unidos, sobreviviendo a nuevas clases de muertos vivientes que han evolucionado desde lo sucedido hace algunos años, así como a algunos supervivientes humanos rezagados. Pero, por encima de todo, tendrán que tratar de soportar los inconvenientes de convivir entre ellos.

Ficha técnica

Video trailer de la película

Enlaces de descarga

Rip de Bluray

Descargar Zombieland Double Tap (2019) REMUX 4K HDR Latino – CMHDD




Aportes de DPeliculasHDmega la pass es:dpeliculashdmega.org Aportes de CinemaniaHD la pass es:cinemaniahdd.com Aportes recientes:cinemaniahdd.net
Guardado en : Comedia , Terror

Películas relacionadas

  • Find Me Falling (2024) NF WEB-DL 1080p Latino

    Find Me Falling (2024) NF WEB-DL 1080p Latino

    2024
    Find Me Falling (2024) NF WEB-DL 1080p Latino

    0h 0m 2024

    Descargar Find Me Falling (2024) NF WEB-DL 1080p Latino. Tras el fracaso del disco con el que pensaba...

    Director: Stelana Kliris

    Género: Comedia

    Actores: Yiola Klitou

  • Goyo (2024) NF WEB-DL 1080p Latino

    Goyo (2024) NF WEB-DL 1080p Latino

    2024
    Goyo (2024) NF WEB-DL 1080p Latino

    1h 47m 2024

    Descargar Goyo (2024) NF WEB-DL 1080p Latino. Goyo es un hombre con Asperger, fanático de Van Gogh,...

    Director: Pablo Discianni

    Género: Comedia

    Actores: Walter Fabian Andrade

  • Inmaculada (2024) HD 1080p Latino

    Inmaculada (2024) HD 1080p Latino

    2024
    Inmaculada (2024) HD 1080p Latino

    1h 29m 2024

    Descargar Inmaculada (2024) HD 1080p Latino. Cecilia, una mujer de fe devota, recibe una calurosa bienvenida...

    Director: Valentina Scuro

    Género: HD 1080p

    Actores: Viviane Florentine Nicolai

  • Inmaculada (2024) PLACEBO Full HD 1080p Latino

    Inmaculada (2024) PLACEBO Full HD 1080p Latino

    2024
    Inmaculada (2024) PLACEBO Full HD 1080p Latino

    1h 29m 2024

    Descargar Inmaculada (2024) PLACEBO Full HD 1080p Latino. Cecilia, una mujer de fe devota, recibe una...

    Director: Valentina Scuro

    Género: FULL 1080p Plateadas

    Actores: Viviane Florentine Nicolai

descargar Zombieland Double Tap (2019) REMUX 4K HDR Latino – CMHDD 1080p gratis, Zombieland Double Tap (2019) REMUX 4K HDR Latino – CMHDD mega 1 link, Zombieland Double Tap (2019) REMUX 4K HDR Latino – CMHDD pelicula completa, descargar Zombieland Double Tap (2019) REMUX 4K HDR Latino – CMHDD gratis en mega.

Zombieland Double Tap (2019) REMUX 4K HDR Latino – CMHDD pelicula full hd, Zombieland Double Tap (2019) REMUX 4K HDR Latino – CMHDD mega latino, Zombieland Double Tap (2019) REMUX 4K HDR Latino – CMHDD 4k latino, Zombieland Double Tap (2019) REMUX 4K HDR Latino – CMHDD pelicula completa, Zombieland Double Tap (2019) REMUX 4K HDR Latino – CMHDD descargar gratis, descargar Zombieland Double Tap (2019) REMUX 4K HDR Latino – CMHDD pelicula latino, Zombieland Double Tap (2019) REMUX 4K HDR Latino – CMHDD 1 link mega, Zombieland Double Tap (2019) REMUX 4K HDR Latino – CMHDD 1 link google drive, Zombieland Double Tap (2019) REMUX 4K HDR Latino – CMHDD hd 1080p latino.
Comentarios 0