×

¿Problemas para descargar con Mozilla, EDGE? Deshabilita la opción "Abrir vinculos en una pestaña nueva" tal como lo muestra ésta imagen.

Zodiaco (2007) Director’s Cut 1080p Español

1.166 vistas

Información de Zodiaco (2007) Director’s Cut 1080p Español

Datos de la película

  • Calidad: 1080p
  • Audio: Se especifica abajo de la Sinopsis
  • Subtitulos: Español Latino SRT - Ingles SRT
  • Resolución: 1920x800p
  • Formato: MKV
  • Codec: H.264
  • Encoder: CinefiloCool
  • Mediainfo: Clic para Mostrar Datos Ver
  • Zodiaco (2007) Director's Cut 1080p Lat-Cast-CMHDD.mkv
    Format                      : Matroska
    Format version              : Version 4
    File size                   : 5.21 GiB
    Duration                    : 2 h 42 min
    Overall bit rate            : 4 589 kb/s
    Movie name                  : Zodiac (2007) CinemaniaHDD.Net
    Encoded date                : UTC 2019-10-30 19:28:46
    Writing application         : mkvmerge v38.0.0 ('The Silent Type') 64-bit
    Writing library             : libebml v1.3.9 + libmatroska v1.5.2
    Attachments                 : CINEMANIAHD.png

    Video
    ID                          : 1
    Format                      : AVC
    Format/Info                 : Advanced Video Codec
    Format profile              : High@L4.1
    Format settings             : CABAC / 5 Ref Frames
    Format settings, CABAC      : Yes
    Format settings, ReFrames   : 5 frames
    Codec ID                    : V_MPEG4/ISO/AVC
    Duration                    : 2 h 42 min
    Bit rate                    : 3 500 kb/s
    Width                       : 1 920 pixels
    Height                      : 800 pixels
    Display aspect ratio        : 2.40:1
    Frame rate mode             : Constant
    Frame rate                  : 23.976 (24000/1001) FPS
    Color space                 : YUV
    Chroma subsampling          : 4:2:0
    Bit depth                   : 8 bits
    Scan type                   : Progressive
    Bits/(Pixel*Frame)          : 0.095
    Stream size                 : 3.97 GiB (76%)
    Title                       : HD1080p [Bluray]
    Writing library             : x264 core 157 r2935 545de2f
    Encoding settings           : cabac=1 / ref=5 / deblock=1:-1:-1 / analyse=0x3:0x133 / me=umh / subme=9 / psy=1 / psy_rd=1.00:0.15 / mixed_ref=1 / me_range=16 / chroma_me=1 / trellis=2 / 8x8dct=1 / cqm=0 / deadzone=21,11 / fast_pskip=1 / chroma_qp_offset=-3 / threads=25 / lookahead_threads=2 / sliced_threads=0 / nr=0 / decimate=1 / interlaced=0 / bluray_compat=0 / constrained_intra=0 / bframes=3 / b_pyramid=2 / b_adapt=2 / b_bias=0 / direct=3 / weightb=1 / open_gop=0 / weightp=2 / keyint=240 / keyint_min=24 / scenecut=40 / intra_refresh=0 / rc_lookahead=60 / rc=2pass / mbtree=1 / bitrate=3500 / ratetol=1.0 / qcomp=0.60 / qpmin=0 / qpmax=69 / qpstep=4 / cplxblur=20.0 / qblur=0.5 / vbv_maxrate=62500 / vbv_bufsize=78125 / nal_hrd=none / filler=0 / ip_ratio=1.40 / aq=1:1.00
    Default                     : Yes
    Forced                      : No
    Color range                 : Limited
    Color primaries             : BT.709
    Transfer characteristics    : BT.709
    Matrix coefficients         : BT.709

    Audio #1
    ID                          : 2
    Format                      : AC-3
    Format/Info                 : Audio Coding 3
    Commercial name             : Dolby Digital
    Codec ID                    : A_AC3
    Duration                    : 2 h 42 min
    Bit rate mode               : Constant
    Bit rate                    : 192 kb/s
    Channel(s)                  : 2 channels
    Channel layout              : L R
    Sampling rate               : 48.0 kHz
    Frame rate                  : 31.250 FPS (1536 SPF)
    Bit depth                   : 16 bits
    Compression mode            : Lossy
    Delay relative to video     : -5 ms
    Stream size                 : 223 MiB (4%)
    Title                       : AC3_2.0_DVD_Lat
    Language                    : Spanish
    Service kind                : Complete Main
    Default                     : Yes
    Forced                      : Yes

    Audio #2
    ID                          : 3
    Format                      : AC-3
    Format/Info                 : Audio Coding 3
    Commercial name             : Dolby Digital
    Codec ID                    : A_AC3
    Duration                    : 2 h 42 min
    Bit rate mode               : Constant
    Bit rate                    : 448 kb/s
    Channel(s)                  : 6 channels
    Channel layout              : L R C LFE Ls Rs
    Sampling rate               : 48.0 kHz
    Frame rate                  : 31.250 FPS (1536 SPF)
    Bit depth                   : 16 bits
    Compression mode            : Lossy
    Delay relative to video     : -5 ms
    Stream size                 : 521 MiB (10%)
    Title                       : AC3_5.1_Bluray_Eng
    Language                    : English
    Service kind                : Complete Main
    Default                     : No
    Forced                      : No

    Audio #3
    ID                          : 4
    Format                      : AC-3
    Format/Info                 : Audio Coding 3
    Commercial name             : Dolby Digital
    Codec ID                    : A_AC3
    Duration                    : 2 h 42 min
    Bit rate mode               : Constant
    Bit rate                    : 448 kb/s
    Channel(s)                  : 6 channels
    Channel layout              : L R C LFE Ls Rs
    Sampling rate               : 48.0 kHz
    Frame rate                  : 31.250 FPS (1536 SPF)
    Bit depth                   : 16 bits
    Compression mode            : Lossy
    Delay relative to video     : -5 ms
    Stream size                 : 521 MiB (10%)
    Title                       : AC3_5.1_Bluray_Cast
    Language                    : Spanish
    Service kind                : Complete Main
    Default                     : No
    Forced                      : No

    Text #1
    ID                          : 5
    Format                      : UTF-8
    Codec ID                    : S_TEXT/UTF8
    Codec ID/Info               : UTF-8 Plain Text
    Duration                    : 2 h 39 min
    Bit rate                    : 3 b/s
    Count of elements           : 107
    Stream size                 : 4.52 KiB (0%)
    Title                       : Sub_Forzados
    Language                    : Spanish
    Default                     : Yes
    Forced                      : Yes

    Text #2
    ID                          : 6
    Format                      : UTF-8
    Codec ID                    : S_TEXT/UTF8
    Codec ID/Info               : UTF-8 Plain Text
    Duration                    : 2 h 39 min
    Bit rate                    : 87 b/s
    Count of elements           : 2726
    Stream size                 : 102 KiB (0%)
    Title                       : Sub_Esp
    Language                    : Spanish
    Default                     : No
    Forced                      : No

    Text #3
    ID                          : 7
    Format                      : UTF-8
    Codec ID                    : S_TEXT/UTF8
    Codec ID/Info               : UTF-8 Plain Text
    Duration                    : 2 h 38 min
    Bit rate                    : 86 b/s
    Count of elements           : 2750
    Stream size                 : 100 KiB (0%)
    Title                       : Sub_Eng
    Language                    : English
    Default                     : No
    Forced                      : No

    Menu
    00:00:00.000                : :00:00:00.000
    00:06:19.296                : :00:06:19.212
    00:14:27.367                : :00:14:27.366
    00:17:39.141                : :00:17:39.058
    00:24:19.500                : :00:24:19.458
    00:31:34.309                : :00:31:34.226
    00:36:32.607                : :00:36:32.524
    00:42:18.369                : :00:42:18.369
    00:49:14.618                : :00:49:14.618
    00:55:51.056                : :00:55:51.014
    01:01:02.242                : :01:01:02.158
    01:06:51.591                : :01:06:51.507
    01:12:12.245                : :01:12:12.161
    01:17:48.706                : :01:17:48.664
    01:21:38.811                : :01:21:38.727
    01:34:37.172                : :01:34:37.171
    01:36:58.062                : :01:36:57.979
    01:41:54.317                : :01:41:54.275
    01:47:57.638                : :01:47:57.638
    01:56:02.497                : :01:56:02.455
    02:01:21.191                : :02:01:21.107
    02:07:20.049                : :02:07:19.966
    02:14:15.422                : :02:14:15.381
    02:21:36.196                : :02:21:36.154
    02:28:03.416                : :02:28:03.374
    02:34:35.516                : :02:34:35.433
    02:39:27.391                : :02:39:27.391

  • Peso: 5.21 GiB

Sinopsis

Descargar Zodiaco (2007) Director’s Cut 1080p Español. Thriller sobre el famoso «Asesino del Zodiaco», un asesino en serie que, entre 1966 y 1978, mató a numerosas personas en San Francisco, al tiempo que enviaba a los medios de comunicación cartas con pistas. La acción se centra en las largas pesquisas de dos detectives que intentaron darle caza y en las investigaciones de dos periodistas que trataron de averiguar su identidad…

Audio Español Latino AC3 2.0 DVD (Editado) – Ingles AC3 5.1 Bluray – Castellano AC3 5.1 Bluray
Audio Latino:
paatto1 Thanks!!!

Ficha técnica

Video trailer de la película

Enlaces de descarga

Rip de Bluray

Descargar Zodiaco (2007) Director’s Cut 1080p Español




Aportes de DPeliculasHDmega la pass es:dpeliculashdmega.org Aportes de CinemaniaHD la pass es:cinemaniahdd.com
Guardado en : Castellano , Crimen , Drama , HD 1080p , Misterio , Suspenso

Películas relacionadas

  • Borrego: Sal Del Camino (2022) HD 1080p Latino

    Borrego: Sal Del Camino (2022) HD 1080p Latino

    2022
    Borrego: Sal Del Camino (2022) HD 1080p Latino

    1h 42m 2022

    Descargar Borrego: Sal Del Camino (2022) HD 1080p Latino. Una joven botánica se traslada a un pequeño...

    Director: Jesse Harris

    Género: Crimen

    Actores: Olivia Trujillo

  • Borrego: Sal Del Camino (2022) REMUX 1080p Latino

    Borrego: Sal Del Camino (2022) REMUX 1080p Latino

    2022
    Borrego: Sal Del Camino (2022) REMUX 1080p Latino

    1h 42m 2022

    Descargar Borrego: Sal Del Camino (2022) REMUX 1080p Latino. Una joven botánica se traslada a un pequeño...

    Director: Jesse Harris

    Género: Crimen

    Actores: Olivia Trujillo

  • Tren Bala (2022) WEB-DL 4K UHD HDR Latino

    Tren Bala (2022) WEB-DL 4K UHD HDR Latino

    2022
    Tren Bala (2022) WEB-DL 4K UHD HDR Latino

    2h 7m 2022

    Descargar Tren Bala (2022) WEB-DL 4K UHD HDR Latino. El desafortunado asesino "Catarina" está decidido...

    Director: Paul Barry

    Género: 4K HDR

    Actores: Zooey Miyoshi

  • Tren Bala (2022) AMZN WEB-DL 1080p Latino

    Tren Bala (2022) AMZN WEB-DL 1080p Latino

    2022
    Tren Bala (2022) AMZN WEB-DL 1080p Latino

    2h 7m 2022

    Descargar Tren Bala (2022) AMZN WEB-DL 1080p Latino. Cinco asesinos a sueldo se encuentran a bordo de...

    Director: Paul Barry

    Género: Acción

    Actores: Zooey Miyoshi

descargar Zodiaco (2007) Director’s Cut 1080p Español 1080p 1080p gratis, Zodiaco (2007) Director’s Cut 1080p Español 1080p mega 1 link, Zodiaco (2007) Director’s Cut 1080p Español 1080p pelicula completa, descargar Zodiaco (2007) Director’s Cut 1080p Español 1080p gratis en mega.

Zodiaco (2007) Director’s Cut 1080p Español pelicula full hd, Zodiaco (2007) Director’s Cut 1080p Español mega latino, Zodiaco (2007) Director’s Cut 1080p Español 4k latino, Zodiaco (2007) Director’s Cut 1080p Español pelicula completa, Zodiaco (2007) Director’s Cut 1080p Español descargar gratis, descargar Zodiaco (2007) Director’s Cut 1080p Español pelicula latino, Zodiaco (2007) Director’s Cut 1080p Español 1 link mega, Zodiaco (2007) Director’s Cut 1080p Español 1 link google drive, Zodiaco (2007) Director’s Cut 1080p Español hd 1080p latino.
Comentarios 0