×

¿Problemas para descargar con Mozilla, EDGE? Deshabilita la opción "Abrir vinculos en una pestaña nueva" tal como lo muestra ésta imagen.

Zodiaco (2007) Director’s Cut REMUX 1080p Español – CMHDD

856 vistas

Información de Zodiaco (2007) Director’s Cut REMUX 1080p Español – CMHDD

Datos de la película

  • Calidad: Full 1080p
  • Audio: Se especifica abajo de la Sinopsis
  • Subtitulos: Español Latino PGS - Ingles PGS
  • Resolución: 1920x1080p
  • Formato: MKV
  • Codec: H.264
  • Encoder: CinefiloCool
  • Mediainfo: Clic para Mostrar Datos Ver
  • Zodiaco (2007) Director's Cut REMUX 1080p Lat-Cast-CMHDD.mkv
    Format                      : Matroska
    Format version              : Version 4
    File size                   : 40.8 GiB
    Duration                    : 2 h 42 min
    Overall bit rate mode       : Variable
    Overall bit rate            : 35.9 Mb/s
    Movie name                  : Zodiac (2007) CinemaniaHDD.Net
    Encoded date                : UTC 2019-10-30 19:41:23
    Writing application         : mkvmerge v38.0.0 ('The Silent Type') 64-bit
    Writing library             : libebml v1.3.9 + libmatroska v1.5.2
    Attachments                 : CINEMANIAHD.png

    Video
    ID                          : 1
    Format                      : AVC
    Format/Info                 : Advanced Video Codec
    Format profile              : High@L4.1
    Format settings             : CABAC / 4 Ref Frames
    Format settings, CABAC      : Yes
    Format settings, ReFrames   : 4 frames
    Codec ID                    : V_MPEG4/ISO/AVC
    Duration                    : 2 h 42 min
    Bit rate mode               : Variable
    Bit rate                    : 31.3 Mb/s
    Maximum bit rate            : 39.0 Mb/s
    Width                       : 1 920 pixels
    Height                      : 1 080 pixels
    Display aspect ratio        : 16:9
    Frame rate mode             : Constant
    Frame rate                  : 23.976 (24000/1001) FPS
    Color space                 : YUV
    Chroma subsampling          : 4:2:0
    Bit depth                   : 8 bits
    Scan type                   : Progressive
    Bits/(Pixel*Frame)          : 0.629
    Stream size                 : 35.5 GiB (87%)
    Title                       : Full HD1080 [REMUX]
    Default                     : Yes
    Forced                      : No
    Color range                 : Limited
    Color primaries             : BT.709
    Transfer characteristics    : BT.709
    Matrix coefficients         : BT.709

    Audio #1
    ID                          : 2
    Format                      : AC-3
    Format/Info                 : Audio Coding 3
    Commercial name             : Dolby Digital
    Codec ID                    : A_AC3
    Duration                    : 2 h 42 min
    Bit rate mode               : Constant
    Bit rate                    : 192 kb/s
    Channel(s)                  : 2 channels
    Channel layout              : L R
    Sampling rate               : 48.0 kHz
    Frame rate                  : 31.250 FPS (1536 SPF)
    Bit depth                   : 16 bits
    Compression mode            : Lossy
    Stream size                 : 223 MiB (1%)
    Title                       : AC3_2.0_DVD_Lat
    Language                    : Spanish
    Service kind                : Complete Main
    Default                     : Yes
    Forced                      : Yes

    Audio #2
    ID                          : 3
    Format                      : MLP FBA
    Format/Info                 : Meridian Lossless Packing FBA
    Commercial name             : Dolby TrueHD
    Codec ID                    : A_TRUEHD
    Duration                    : 2 h 42 min
    Bit rate mode               : Variable
    Bit rate                    : 3 023 kb/s
    Maximum bit rate            : 4 455 kb/s
    Channel(s)                  : 6 channels
    Channel layout              : L R C LFE Ls Rs
    Sampling rate               : 48.0 kHz
    Frame rate                  : 1 200.000 FPS (40 SPF)
    Compression mode            : Lossless
    Stream size                 : 3.43 GiB (8%)
    Title                       : THD_5.1_Bluray_Eng
    Language                    : English
    Default                     : No
    Forced                      : No

    Audio #3
    ID                          : 4
    Format                      : AC-3
    Format/Info                 : Audio Coding 3
    Commercial name             : Dolby Digital
    Codec ID                    : A_AC3
    Duration                    : 2 h 42 min
    Bit rate mode               : Constant
    Bit rate                    : 640 kb/s
    Channel(s)                  : 6 channels
    Channel layout              : L R C LFE Ls Rs
    Sampling rate               : 48.0 kHz
    Frame rate                  : 31.250 FPS (1536 SPF)
    Bit depth                   : 16 bits
    Compression mode            : Lossy
    Stream size                 : 744 MiB (2%)
    Title                       : AC3_5.1_Bluray_Eng
    Language                    : English
    Service kind                : Complete Main
    Default                     : No
    Forced                      : No

    Audio #4
    ID                          : 5
    Format                      : AC-3
    Format/Info                 : Audio Coding 3
    Commercial name             : Dolby Digital
    Codec ID                    : A_AC3
    Duration                    : 2 h 42 min
    Bit rate mode               : Constant
    Bit rate                    : 640 kb/s
    Channel(s)                  : 6 channels
    Channel layout              : L R C LFE Ls Rs
    Sampling rate               : 48.0 kHz
    Frame rate                  : 31.250 FPS (1536 SPF)
    Bit depth                   : 16 bits
    Compression mode            : Lossy
    Stream size                 : 744 MiB (2%)
    Title                       : AC3_5.1_Bluray_Cast
    Language                    : Spanish
    Service kind                : Complete Main
    Default                     : No
    Forced                      : No

    Text #1
    ID                          : 6
    Format                      : PGS
    Muxing mode                 : zlib
    Codec ID                    : S_HDMV/PGS
    Codec ID/Info               : Picture based subtitle format used on BDs/HD-DVDs
    Duration                    : 2 h 39 min
    Bit rate                    : 53.8 kb/s
    Count of elements           : 5452
    Stream size                 : 61.2 MiB (0%)
    Title                       : Sub_Esp [PGS]
    Language                    : Spanish
    Default                     : No
    Forced                      : No

    Text #2
    ID                          : 7
    Format                      : PGS
    Muxing mode                 : zlib
    Codec ID                    : S_HDMV/PGS
    Codec ID/Info               : Picture based subtitle format used on BDs/HD-DVDs
    Duration                    : 2 h 38 min
    Bit rate                    : 56.4 kb/s
    Count of elements           : 5510
    Stream size                 : 63.8 MiB (0%)
    Title                       : Sub_Eng [PGS]
    Language                    : English
    Default                     : No
    Forced                      : No

    Text #3
    ID                          : 8
    Format                      : UTF-8
    Codec ID                    : S_TEXT/UTF8
    Codec ID/Info               : UTF-8 Plain Text
    Duration                    : 2 h 39 min
    Bit rate                    : 3 b/s
    Count of elements           : 107
    Stream size                 : 4.52 KiB (0%)
    Title                       : Sub_Forzados
    Language                    : Spanish
    Default                     : Yes
    Forced                      : Yes

    Text #4
    ID                          : 9
    Format                      : UTF-8
    Codec ID                    : S_TEXT/UTF8
    Codec ID/Info               : UTF-8 Plain Text
    Duration                    : 2 h 39 min
    Bit rate                    : 87 b/s
    Count of elements           : 2726
    Stream size                 : 102 KiB (0%)
    Title                       : Sub_Esp
    Language                    : Spanish
    Default                     : No
    Forced                      : No

    Menu
    00:00:00.000                : en:00:00:00.000
    00:06:19.212                : en:00:06:19.212
    00:14:27.366                : en:00:14:27.366
    00:17:39.058                : en:00:17:39.058
    00:24:19.458                : en:00:24:19.458
    00:31:34.226                : en:00:31:34.226
    00:36:32.524                : en:00:36:32.524
    00:42:18.369                : en:00:42:18.369
    00:49:14.618                : en:00:49:14.618
    00:55:51.014                : en:00:55:51.014
    01:01:02.158                : en:01:01:02.158
    01:06:51.507                : en:01:06:51.507
    01:12:12.161                : en:01:12:12.161
    01:17:48.664                : en:01:17:48.664
    01:21:38.727                : en:01:21:38.727
    01:34:37.171                : en:01:34:37.171
    01:36:57.979                : en:01:36:57.979
    01:41:54.275                : en:01:41:54.275
    01:47:57.638                : en:01:47:57.638
    01:56:02.455                : en:01:56:02.455
    02:01:21.107                : en:02:01:21.107
    02:07:19.966                : en:02:07:19.966
    02:14:15.381                : en:02:14:15.381
    02:21:36.154                : en:02:21:36.154
    02:28:03.374                : en:02:28:03.374
    02:34:35.433                : en:02:34:35.433
    02:39:27.391                : en:02:39:27.391

  • Peso: 40.8 GiB

Sinopsis

Descargar Zodiaco (2007) Director’s Cut REMUX 1080p Español. Thriller sobre el famoso «Asesino del Zodiaco», un asesino en serie que, entre 1966 y 1978, mató a numerosas personas en San Francisco, al tiempo que enviaba a los medios de comunicación cartas con pistas. La acción se centra en las largas pesquisas de dos detectives que intentaron darle caza y en las investigaciones de dos periodistas que trataron de averiguar su identidad…

Audio Español Latino AC3 2.0 DVD (Editado) – Ingles TrueHD+AC3 5.1 Bluray – Castellano AC3 5.1 Bluray
Audio Latino:
paatto1 Thanks!!!

Ficha técnica

Video trailer de la película

Enlaces de descarga

Rip de Bluray

Descargar Zodiaco (2007) Director’s Cut REMUX 1080p Español – CMHDD


Aportes de DPeliculasHDmega la pass es:dpeliculashdmega.org Aportes de CinemaniaHD la pass es:cinemaniahdd.com
Guardado en : Castellano , Crimen , Drama , Misterio , Remux , Suspenso

Películas relacionadas

  • Blonde (2022) NF WEB-DL 1080p Latino

    Blonde (2022) NF WEB-DL 1080p Latino

    2022
    Blonde (2022) NF WEB-DL 1080p Latino

    2h 46m 2022

    Descargar Blonde (2022) NF WEB-DL 1080p Latino. Basada en el bestseller de la cinco veces finalista al...

    Director: Kristin Bree Calabrese

    Género: Drama

    Actores: Xavier Samuel

  • La Máquina infernal (2022) WEB-DL 1080p Latino

    La Máquina infernal (2022) WEB-DL 1080p Latino

    2022
    La Máquina infernal (2022) WEB-DL 1080p Latino

    1h 47m 2022

    Descargar La Máquina infernal (2022) WEB-DL 1080p Latino. Un fan obsesivo saca de su escondite al solitario...

    Director: Andrew Hunt

    Género: Suspenso

    Actores: Rocco Salata

  • Borrego: Sal Del Camino (2022) HD 1080p Latino

    Borrego: Sal Del Camino (2022) HD 1080p Latino

    2022
    Borrego: Sal Del Camino (2022) HD 1080p Latino

    1h 42m 2022

    Descargar Borrego: Sal Del Camino (2022) HD 1080p Latino. Una joven botánica se traslada a un pequeño...

    Director: Jesse Harris

    Género: Crimen

    Actores: Olivia Trujillo

  • Borrego: Sal Del Camino (2022) REMUX 1080p Latino

    Borrego: Sal Del Camino (2022) REMUX 1080p Latino

    2022
    Borrego: Sal Del Camino (2022) REMUX 1080p Latino

    1h 42m 2022

    Descargar Borrego: Sal Del Camino (2022) REMUX 1080p Latino. Una joven botánica se traslada a un pequeño...

    Director: Jesse Harris

    Género: Crimen

    Actores: Olivia Trujillo

descargar Zodiaco (2007) Director’s Cut REMUX 1080p Español – CMHDD Full 1080p 1080p gratis, Zodiaco (2007) Director’s Cut REMUX 1080p Español – CMHDD Full 1080p mega 1 link, Zodiaco (2007) Director’s Cut REMUX 1080p Español – CMHDD Full 1080p pelicula completa, descargar Zodiaco (2007) Director’s Cut REMUX 1080p Español – CMHDD Full 1080p gratis en mega.

Zodiaco (2007) Director’s Cut REMUX 1080p Español – CMHDD pelicula full hd, Zodiaco (2007) Director’s Cut REMUX 1080p Español – CMHDD mega latino, Zodiaco (2007) Director’s Cut REMUX 1080p Español – CMHDD 4k latino, Zodiaco (2007) Director’s Cut REMUX 1080p Español – CMHDD pelicula completa, Zodiaco (2007) Director’s Cut REMUX 1080p Español – CMHDD descargar gratis, descargar Zodiaco (2007) Director’s Cut REMUX 1080p Español – CMHDD pelicula latino, Zodiaco (2007) Director’s Cut REMUX 1080p Español – CMHDD 1 link mega, Zodiaco (2007) Director’s Cut REMUX 1080p Español – CMHDD 1 link google drive, Zodiaco (2007) Director’s Cut REMUX 1080p Español – CMHDD hd 1080p latino.
Comentarios 0