×

¿Problemas para descargar con Mozilla, EDGE? Deshabilita la opción "Abrir vinculos en una pestaña nueva" tal como lo muestra ésta imagen.

Zodiaco (2007) Director’s Cut Full HD 1080p Español – CMHDD

2.411 vistas

Información de Zodiaco (2007) Director’s Cut Full HD 1080p Español – CMHDD

Datos de la película

  • Calidad: Full 1080p
  • Audio: Se especifica abajo de la Sinopsis
  • Subtitulos: Español Latino PGS - Ingles PGS
  • Resolución: 1920x1080p
  • Formato: MKV
  • Codec: H.264
  • Encoder: CinefiloCool
  • Mediainfo: Clic para Mostrar Datos Ver
  • Zodiaco (2007) Director's Cut Full HD 1080p Lat-Cast-CMHDD.mkv
    Format                      : Matroska
    Format version              : Version 4
    File size                   : 5.91 GiB
    Duration                    : 2 h 42 min
    Overall bit rate            : 5 204 kb/s
    Movie name                  : Zodiac (2007) CinemaniaHDD.Net
    Encoded date                : UTC 2019-10-30 19:05:42
    Writing application         : mkvmerge v38.0.0 ('The Silent Type') 64-bit
    Writing library             : libebml v1.3.9 + libmatroska v1.5.2
    Attachments                 : CINEMANIAHD.png

    Video
    ID                          : 1
    Format                      : AVC
    Format/Info                 : Advanced Video Codec
    Format profile              : High@L4.1
    Format settings             : CABAC / 4 Ref Frames
    Format settings, CABAC      : Yes
    Format settings, ReFrames   : 4 frames
    Codec ID                    : V_MPEG4/ISO/AVC
    Duration                    : 2 h 42 min
    Bit rate                    : 2 829 kb/s
    Width                       : 1 920 pixels
    Height                      : 1 080 pixels
    Display aspect ratio        : 16:9
    Frame rate mode             : Constant
    Frame rate                  : 23.976 (24000/1001) FPS
    Color space                 : YUV
    Chroma subsampling          : 4:2:0
    Bit depth                   : 8 bits
    Scan type                   : Progressive
    Bits/(Pixel*Frame)          : 0.057
    Stream size                 : 3.21 GiB (54%)
    Title                       : Full HD1080p [Bluray]
    Writing library             : x264 core 157 r2935 545de2f
    Encoding settings           : cabac=1 / ref=4 / deblock=1:0:0 / analyse=0x3:0x133 / me=tesa / subme=11 / psy=1 / psy_rd=1.00:0.00 / mixed_ref=1 / me_range=24 / chroma_me=1 / trellis=2 / 8x8dct=1 / cqm=0 / deadzone=21,11 / fast_pskip=0 / chroma_qp_offset=-2 / threads=34 / lookahead_threads=8 / sliced_threads=0 / nr=0 / decimate=1 / interlaced=0 / bluray_compat=0 / constrained_intra=0 / bframes=16 / b_pyramid=2 / b_adapt=2 / b_bias=0 / direct=3 / weightb=1 / open_gop=0 / weightp=2 / keyint=240 / keyint_min=24 / scenecut=40 / intra_refresh=0 / rc_lookahead=60 / rc=crf / mbtree=1 / crf=20.0 / qcomp=0.60 / qpmin=0 / qpmax=69 / qpstep=4 / vbv_maxrate=62500 / vbv_bufsize=78125 / crf_max=0.0 / nal_hrd=none / filler=0 / ip_ratio=1.40 / aq=1:1.00
    Default                     : Yes
    Forced                      : No
    Color range                 : Limited
    Color primaries             : BT.709
    Transfer characteristics    : BT.709
    Matrix coefficients         : BT.709

    Audio #1
    ID                          : 2
    Format                      : AC-3
    Format/Info                 : Audio Coding 3
    Commercial name             : Dolby Digital
    Codec ID                    : A_AC3
    Duration                    : 2 h 42 min
    Bit rate mode               : Constant
    Bit rate                    : 192 kb/s
    Channel(s)                  : 2 channels
    Channel layout              : L R
    Sampling rate               : 48.0 kHz
    Frame rate                  : 31.250 FPS (1536 SPF)
    Bit depth                   : 16 bits
    Compression mode            : Lossy
    Stream size                 : 223 MiB (4%)
    Title                       : AC3_2.0_DVD_Lat
    Language                    : Spanish
    Service kind                : Complete Main
    Default                     : Yes
    Forced                      : Yes

    Audio #2
    ID                          : 3
    Format                      : DTS
    Format/Info                 : Digital Theater Systems
    Codec ID                    : A_DTS
    Duration                    : 2 h 42 min
    Bit rate mode               : Constant
    Bit rate                    : 1 510 kb/s
    Channel(s)                  : 6 channels
    Channel layout              : C L R Ls Rs LFE
    Sampling rate               : 48.0 kHz
    Frame rate                  : 93.750 FPS (512 SPF)
    Bit depth                   : 24 bits
    Compression mode            : Lossy
    Stream size                 : 1.71 GiB (29%)
    Title                       : DTS_5.1_Bluray_Eng
    Language                    : English
    Default                     : No
    Forced                      : No

    Audio #3
    ID                          : 4
    Format                      : AC-3
    Format/Info                 : Audio Coding 3
    Commercial name             : Dolby Digital
    Codec ID                    : A_AC3
    Duration                    : 2 h 42 min
    Bit rate mode               : Constant
    Bit rate                    : 640 kb/s
    Channel(s)                  : 6 channels
    Channel layout              : L R C LFE Ls Rs
    Sampling rate               : 48.0 kHz
    Frame rate                  : 31.250 FPS (1536 SPF)
    Bit depth                   : 16 bits
    Compression mode            : Lossy
    Stream size                 : 744 MiB (12%)
    Title                       : AC3_5.1_Bluray_Cast
    Language                    : Spanish
    Service kind                : Complete Main
    Default                     : No
    Forced                      : No

    Text #1
    ID                          : 5
    Format                      : PGS
    Muxing mode                 : zlib
    Codec ID                    : S_HDMV/PGS
    Codec ID/Info               : Picture based subtitle format used on BDs/HD-DVDs
    Duration                    : 2 h 39 min
    Bit rate                    : 53.8 kb/s
    Count of elements           : 5452
    Stream size                 : 61.2 MiB (1%)
    Title                       : Sub_Esp [PGS]
    Language                    : Spanish
    Default                     : No
    Forced                      : No

    Text #2
    ID                          : 6
    Format                      : PGS
    Muxing mode                 : zlib
    Codec ID                    : S_HDMV/PGS
    Codec ID/Info               : Picture based subtitle format used on BDs/HD-DVDs
    Duration                    : 2 h 37 min
    Bit rate                    : 53.8 kb/s
    Count of elements           : 5186
    Stream size                 : 60.5 MiB (1%)
    Title                       : Sub_Eng [PGS]
    Language                    : English
    Default                     : No
    Forced                      : No

    Text #3
    ID                          : 7
    Format                      : UTF-8
    Codec ID                    : S_TEXT/UTF8
    Codec ID/Info               : UTF-8 Plain Text
    Duration                    : 2 h 39 min
    Bit rate                    : 3 b/s
    Count of elements           : 107
    Stream size                 : 4.52 KiB (0%)
    Title                       : Sub_Forzados
    Language                    : Spanish
    Default                     : Yes
    Forced                      : Yes

    Text #4
    ID                          : 8
    Format                      : UTF-8
    Codec ID                    : S_TEXT/UTF8
    Codec ID/Info               : UTF-8 Plain Text
    Duration                    : 2 h 39 min
    Bit rate                    : 87 b/s
    Count of elements           : 2726
    Stream size                 : 102 KiB (0%)
    Title                       : Sub_Esp
    Language                    : Spanish
    Default                     : No
    Forced                      : No

    Menu
    00:00:00.000                : :00:00:00.000
    00:06:19.296                : :00:06:19.212
    00:14:27.367                : :00:14:27.366
    00:17:39.141                : :00:17:39.058
    00:24:19.500                : :00:24:19.458
    00:31:34.309                : :00:31:34.226
    00:36:32.607                : :00:36:32.524
    00:42:18.369                : :00:42:18.369
    00:49:14.618                : :00:49:14.618
    00:55:51.056                : :00:55:51.014
    01:01:02.242                : :01:01:02.158
    01:06:51.591                : :01:06:51.507
    01:12:12.245                : :01:12:12.161
    01:17:48.706                : :01:17:48.664
    01:21:38.811                : :01:21:38.727
    01:34:37.172                : :01:34:37.171
    01:36:58.062                : :01:36:57.979
    01:41:54.317                : :01:41:54.275
    01:47:57.638                : :01:47:57.638
    01:56:02.497                : :01:56:02.455
    02:01:21.191                : :02:01:21.107
    02:07:20.049                : :02:07:19.966
    02:14:15.422                : :02:14:15.381
    02:21:36.196                : :02:21:36.154
    02:28:03.416                : :02:28:03.374
    02:34:35.516                : :02:34:35.433
    02:39:27.391                : :02:39:27.391

  • Peso: 5.91 GiB

Sinopsis

Descargar Zodiaco (2007) Director’s Cut Full HD 1080p Español. Thriller sobre el famoso «Asesino del Zodiaco», un asesino en serie que, entre 1966 y 1978, mató a numerosas personas en San Francisco, al tiempo que enviaba a los medios de comunicación cartas con pistas. La acción se centra en las largas pesquisas de dos detectives que intentaron darle caza y en las investigaciones de dos periodistas que trataron de averiguar su identidad…

Audio Español Latino AC3 2.0 DVD (Editado) – Ingles DTS 5.1 Bluray – Castellano AC3 5.1 Bluray
Audio Latino:
paatto1 Thanks!!!

Ficha técnica

Video trailer de la película

Enlaces de descarga

Rip de Bluray

Descargar Zodiaco (2007) Director’s Cut Full HD 1080p Español – CMHDD




Aportes de DPeliculasHDmega la pass es:dpeliculashdmega.org Aportes de CinemaniaHD la pass es:cinemaniahdd.com Aportes recientes:cinemaniahdd.net

Películas relacionadas

descargar Zodiaco (2007) Director’s Cut Full HD 1080p Español – CMHDD Full 1080p 1080p gratis, Zodiaco (2007) Director’s Cut Full HD 1080p Español – CMHDD Full 1080p mega 1 link, Zodiaco (2007) Director’s Cut Full HD 1080p Español – CMHDD Full 1080p pelicula completa, descargar Zodiaco (2007) Director’s Cut Full HD 1080p Español – CMHDD Full 1080p gratis en mega.

Zodiaco (2007) Director’s Cut Full HD 1080p Español – CMHDD pelicula full hd, Zodiaco (2007) Director’s Cut Full HD 1080p Español – CMHDD mega latino, Zodiaco (2007) Director’s Cut Full HD 1080p Español – CMHDD 4k latino, Zodiaco (2007) Director’s Cut Full HD 1080p Español – CMHDD pelicula completa, Zodiaco (2007) Director’s Cut Full HD 1080p Español – CMHDD descargar gratis, descargar Zodiaco (2007) Director’s Cut Full HD 1080p Español – CMHDD pelicula latino, Zodiaco (2007) Director’s Cut Full HD 1080p Español – CMHDD 1 link mega, Zodiaco (2007) Director’s Cut Full HD 1080p Español – CMHDD 1 link google drive, Zodiaco (2007) Director’s Cut Full HD 1080p Español – CMHDD hd 1080p latino.
Comentarios 0