×

¿Problemas para descargar con Mozilla, EDGE? Deshabilita la opción "Abrir vinculos en una pestaña nueva" tal como lo muestra ésta imagen.

ZeroZeroZero (2020) Temporada 1 AMZN WEB-DL 1080p Latino

1.188 vistas

Información de ZeroZeroZero (2020) Temporada 1 AMZN WEB-DL 1080p Latino

Datos de la película

  • Calidad: WEBDL
  • Audio: Español Latino AC3 5.1 AMAZON - Ingles AC3 5.1 AMAZON
  • Subtitulos: Español Latino SRT- FORZADOS SRT
  • Resolución: 1920x1080
  • Formato: MKV
  • Codec: H.264
  • Encoder: cinemaniahdd
  • Mediainfo: Clic para Mostrar Datos Ver
  • ZeroZeroZero T01E01 AMZN WEB-DL 1080p Latino.mkv
    Format                      : Matroska
    Format version              : Version 4
    File size                   : 1.96 GiB
    Duration                    : 57 min 26 s
    Overall bit rate            : 4 892 kb/s
    Movie name                  : ZeroZeroZero T01E01 - CinemaniaHDD.Net
    Encoded date                : UTC 2020-03-06 10:16:21
    Writing application         : mkvmerge v42.0.0 ('Overtime') 64-bit
    Writing library             : libebml v1.3.10 + libmatroska v1.5.2

    Video
    ID                          : 1
    Format                      : AVC
    Format/Info                 : Advanced Video Codec
    Format profile              : High@L4
    Format settings             : CABAC / 4 Ref Frames
    Format settings, CABAC      : Yes
    Format settings, ReFrames   : 4 frames
    Codec ID                    : V_MPEG4/ISO/AVC
    Duration                    : 57 min 26 s
    Bit rate                    : 3 609 kb/s
    Width                       : 1 920 pixels
    Height                      : 1 080 pixels
    Display aspect ratio        : 16:9
    Frame rate mode             : Constant
    Frame rate                  : 25.000 FPS
    Color space                 : YUV
    Chroma subsampling          : 4:2:0
    Bit depth                   : 8 bits
    Scan type                   : Progressive
    Bits/(Pixel*Frame)          : 0.070
    Stream size                 : 1.45 GiB (74%)
    Title                       : CinemaniaHDD
    Default                     : Yes
    Forced                      : No
    Color range                 : Limited
    Color primaries             : BT.709
    Transfer characteristics    : BT.709
    Matrix coefficients         : BT.709

    Audio #1
    ID                          : 2
    Format                      : E-AC-3
    Format/Info                 : Enhanced AC-3
    Commercial name             : Dolby Digital Plus
    Codec ID                    : A_EAC3
    Duration                    : 57 min 26 s
    Bit rate mode               : Constant
    Bit rate                    : 640 kb/s
    Channel(s)                  : 6 channels
    Channel layout              : L R C LFE Ls Rs
    Sampling rate               : 48.0 kHz
    Frame rate                  : 31.250 FPS (1536 SPF)
    Compression mode            : Lossy
    Stream size                 : 263 MiB (13%)
    Title                       : Español latino [CinemaniaHDD]
    Language                    : Spanish
    Service kind                : Complete Main
    Default                     : Yes
    Forced                      : No

    Audio #2
    ID                          : 3
    Format                      : E-AC-3
    Format/Info                 : Enhanced AC-3
    Commercial name             : Dolby Digital Plus
    Codec ID                    : A_EAC3
    Duration                    : 57 min 26 s
    Bit rate mode               : Constant
    Bit rate                    : 640 kb/s
    Channel(s)                  : 6 channels
    Channel layout              : L R C LFE Ls Rs
    Sampling rate               : 48.0 kHz
    Frame rate                  : 31.250 FPS (1536 SPF)
    Compression mode            : Lossy
    Stream size                 : 263 MiB (13%)
    Title                       : Inglés [CinemaniaHDD]
    Language                    : English
    Service kind                : Complete Main
    Default                     : No
    Forced                      : No

    Text #1
    ID                          : 4
    Format                      : UTF-8
    Codec ID                    : S_TEXT/UTF8
    Codec ID/Info               : UTF-8 Plain Text
    Duration                    : 35 min 12 s
    Bit rate                    : 0 b/s
    Count of elements           : 6
    Stream size                 : 96.0 Bytes (0%)
    Title                       : Forzados [CinemaniaHDD]
    Language                    : Spanish
    Default                     : Yes
    Forced                      : Yes

    Text #2
    ID                          : 5
    Format                      : UTF-8
    Codec ID                    : S_TEXT/UTF8
    Codec ID/Info               : UTF-8 Plain Text
    Duration                    : 57 min 1 s
    Bit rate                    : 23 b/s
    Count of elements           : 359
    Stream size                 : 9.89 KiB (0%)
    Title                       : Español latino [CinemaniaHDD]
    Language                    : Spanish
    Default                     : No
    Forced                      : No

     

  • Peso: 1.96 GiB C/U

Sinopsis

Basado en el libro del mismo nombre del exitoso autor Roberto Saviano, ZeroZeroZero es una exploración inolvidable del funcionamiento interno del comercio mundial de cocaína.

Ficha técnica

Video trailer de la película

Enlaces de descarga

Rip de Bluray

Descargar ZeroZeroZero (2020) Temporada 1 AMZN WEB-DL 1080p Latino




Aportes de DPeliculasHDmega la pass es:dpeliculashdmega.org Aportes de CinemaniaHD la pass es:cinemaniahdd.com
Guardado en : Crimen , Drama , Series

Películas relacionadas

descargar ZeroZeroZero (2020) Temporada 1 AMZN WEB-DL 1080p Latino WEBDL 1080p gratis, ZeroZeroZero (2020) Temporada 1 AMZN WEB-DL 1080p Latino WEBDL mega 1 link, ZeroZeroZero (2020) Temporada 1 AMZN WEB-DL 1080p Latino WEBDL serie completa, descargar ZeroZeroZero (2020) Temporada 1 AMZN WEB-DL 1080p Latino WEBDL gratis en mega.

ZeroZeroZero (2020) Temporada 1 AMZN WEB-DL 1080p Latino pelicula full hd, ZeroZeroZero (2020) Temporada 1 AMZN WEB-DL 1080p Latino mega latino, ZeroZeroZero (2020) Temporada 1 AMZN WEB-DL 1080p Latino 4k latino, ZeroZeroZero (2020) Temporada 1 AMZN WEB-DL 1080p Latino pelicula completa, ZeroZeroZero (2020) Temporada 1 AMZN WEB-DL 1080p Latino descargar gratis, descargar ZeroZeroZero (2020) Temporada 1 AMZN WEB-DL 1080p Latino pelicula latino, ZeroZeroZero (2020) Temporada 1 AMZN WEB-DL 1080p Latino 1 link mega, ZeroZeroZero (2020) Temporada 1 AMZN WEB-DL 1080p Latino 1 link google drive, ZeroZeroZero (2020) Temporada 1 AMZN WEB-DL 1080p Latino hd 1080p latino.
Comentarios 0