×

¿Problemas para descargar con Mozilla, EDGE? Deshabilita la opción "Abrir vinculos en una pestaña nueva" tal como lo muestra ésta imagen.

Zapatos Rojos y los Siete Enanos (2019) REMUX 1080p Latino

210 vistas

Información de Zapatos Rojos y los Siete Enanos (2019) REMUX 1080p Latino

Datos de la película

  • Calidad: Full 1080p
  • Audio: Se especifica abajo de la Sinopsis
  • Subtitulos: Español Latino SRT- FORZADOS SRT
  • Resolución: 1920x1080p
  • Formato: MKV
  • Codec: H.264
  • Encoder: Melkor
  • Mediainfo: Clic para Mostrar Datos Ver
  • Zapatos Rojos Y Los Siete Enanos (2019) REMUX 1080p Latino.mkv
    Format                      : Matroska
    Format version              : Version 4
    File size                   : 23.9 GiB
    Duration                    : 1 h 32 min
    Overall bit rate mode       : Variable
    Overall bit rate            : 37.3 Mb/s
    Movie name                  : Red Shoes And The Seven Dwarfs (2019) CinemaniaHDD.Net
    Encoded date                : UTC 2022-01-10 06:45:27
    Writing application         : mkvmerge v56.1.0 ('My Friend') 64-bit
    Writing library             : libebml v1.4.2 + libmatroska v1.6.4
    Attachments                 : CINEMANIAHD.png

    Video
    ID                          : 1
    Format                      : AVC
    Format/Info                 : Advanced Video Codec
    Format profile              : High@L4.1
    Format settings             : CABAC / 3 Ref Frames
    Format settings, CABAC      : Yes
    Format settings, Reference  : 3 frames
    Codec ID                    : V_MPEG4/ISO/AVC
    Duration                    : 1 h 32 min
    Bit rate mode               : Variable
    Bit rate                    : 32.1 Mb/s
    Maximum bit rate            : 35.0 Mb/s
    Width                       : 1 920 pixels
    Height                      : 1 080 pixels
    Display aspect ratio        : 16:9
    Frame rate mode             : Constant
    Frame rate                  : 23.976 (24000/1001) FPS
    Color space                 : YUV
    Chroma subsampling          : 4:2:0
    Bit depth                   : 8 bits
    Scan type                   : Progressive
    Bits/(Pixel*Frame)          : 0.646
    Stream size                 : 20.7 GiB (86%)
    Title                       : REMUX HD1080p [CinemaniaHDD]
    Language                    : English
    Default                     : Yes
    Forced                      : Yes

    Audio #1
    ID                          : 2
    Format                      : AC-3
    Format/Info                 : Audio Coding 3
    Commercial name             : Dolby Digital
    Codec ID                    : A_AC3
    Duration                    : 1 h 32 min
    Bit rate mode               : Constant
    Bit rate                    : 640 kb/s
    Channel(s)                  : 6 channels
    Channel layout              : L R C LFE Ls Rs
    Sampling rate               : 48.0 kHz
    Frame rate                  : 31.250 FPS (1536 SPF)
    Compression mode            : Lossy
    Stream size                 : 421 MiB (2%)
    Title                       : Español Latino AC3 [CinemaniaHDD]
    Language                    : Spanish
    Service kind                : Complete Main
    Default                     : Yes
    Forced                      : Yes

    Audio #2
    ID                          : 3
    Format                      : DTS XLL
    Format/Info                 : Digital Theater Systems
    Commercial name             : DTS-HD Master Audio
    Codec ID                    : A_DTS
    Duration                    : 1 h 32 min
    Bit rate mode               : Variable
    Bit rate                    : 3 847 kb/s
    Channel(s)                  : 6 channels
    Channel layout              : C L R Ls Rs LFE
    Sampling rate               : 48.0 kHz
    Frame rate                  : 93.750 FPS (512 SPF)
    Bit depth                   : 24 bits
    Compression mode            : Lossless
    Stream size                 : 2.47 GiB (10%)
    Title                       : Ingles [CinemaniaHDD]
    Language                    : English
    Default                     : No
    Forced                      : No

    Audio #3
    ID                          : 4
    Format                      : E-AC-3
    Format/Info                 : Enhanced AC-3
    Commercial name             : Dolby Digital Plus
    Codec ID                    : A_EAC3
    Duration                    : 1 h 32 min
    Bit rate mode               : Constant
    Bit rate                    : 640 kb/s
    Channel(s)                  : 6 channels
    Channel layout              : L R C LFE Ls Rs
    Sampling rate               : 48.0 kHz
    Frame rate                  : 31.250 FPS (1536 SPF)
    Compression mode            : Lossy
    Stream size                 : 421 MiB (2%)
    Title                       : Español Latino EAC3 [CinemaniaHDD]
    Language                    : Spanish
    Service kind                : Complete Main
    Default                     : No
    Forced                      : No

    Text #1
    ID                          : 5
    Format                      : UTF-8
    Codec ID                    : S_TEXT/UTF8
    Codec ID/Info               : UTF-8 Plain Text
    Duration                    : 34 min 41 s
    Bit rate                    : 1 b/s
    Count of elements           : 11
    Stream size                 : 335 Bytes (0%)
    Title                       : Forzados-SRT [CinemaniaHDD]
    Language                    : Spanish
    Default                     : Yes
    Forced                      : Yes

    Text #2
    ID                          : 6
    Format                      : UTF-8
    Codec ID                    : S_TEXT/UTF8
    Codec ID/Info               : UTF-8 Plain Text
    Duration                    : 1 h 30 min
    Bit rate                    : 48 b/s
    Count of elements           : 1049
    Stream size                 : 32.6 KiB (0%)
    Title                       : Español-SRT [CinemaniaHDD]
    Language                    : Spanish
    Default                     : No
    Forced                      : No

    Text #3
    ID                          : 7
    Format                      : UTF-8
    Codec ID                    : S_TEXT/UTF8
    Codec ID/Info               : UTF-8 Plain Text
    Duration                    : 1 h 26 min
    Bit rate                    : 52 b/s
    Count of elements           : 1145
    Stream size                 : 33.4 KiB (0%)
    Title                       : Ingles [CinemaniaHDD]
    Language                    : English
    Default                     : No
    Forced                      : No

    Menu
    00:00:00.000                : Chapter 01
    00:07:26.488                : Chapter 02
    00:14:31.662                : Chapter 03
    00:20:54.462                : Chapter 04
    00:27:22.099                : Chapter 05
    00:33:33.720                : Chapter 06
    00:43:23.976                : Chapter 07
    00:50:41.956                : Chapter 08
    00:56:27.509                : Chapter 09
    01:03:31.266                : Chapter 10
    01:12:52.702                : Chapter 11
    01:24:00.619                : Chapter 12

  • Peso: 23.9 GiB

Sinopsis

Descargar Zapatos Rojos y los Siete Enanos (2019) REMUX 1080p Latino. Unos enanos hechizados se encuentran a una chica con un poder misterioso: sus zapatos rojos. Deberán emprender una misión junto a ella para volver a ser humanos y salvar el reino.

Español Latino EAC3 & AC3 5.1 WebDL – Ingles DTS-HD 5.1 BD

Ficha técnica

Video trailer de la película

Enlaces de descarga

Rip de Bluray

Descargar Zapatos Rojos y los Siete Enanos (2019) REMUX 1080p Latino




Aportes de DPeliculasHDmega la pass es:dpeliculashdmega.org Aportes de CinemaniaHD la pass es:cinemaniahdd.com
Guardado en : Animación , Familia , Remux , Romance

Películas relacionadas

descargar Zapatos Rojos y los Siete Enanos (2019) REMUX 1080p Latino Full 1080p 1080p gratis, Zapatos Rojos y los Siete Enanos (2019) REMUX 1080p Latino Full 1080p mega 1 link, Zapatos Rojos y los Siete Enanos (2019) REMUX 1080p Latino Full 1080p pelicula completa, descargar Zapatos Rojos y los Siete Enanos (2019) REMUX 1080p Latino Full 1080p gratis en mega.

Zapatos Rojos y los Siete Enanos (2019) REMUX 1080p Latino pelicula full hd, Zapatos Rojos y los Siete Enanos (2019) REMUX 1080p Latino mega latino, Zapatos Rojos y los Siete Enanos (2019) REMUX 1080p Latino 4k latino, Zapatos Rojos y los Siete Enanos (2019) REMUX 1080p Latino pelicula completa, Zapatos Rojos y los Siete Enanos (2019) REMUX 1080p Latino descargar gratis, descargar Zapatos Rojos y los Siete Enanos (2019) REMUX 1080p Latino pelicula latino, Zapatos Rojos y los Siete Enanos (2019) REMUX 1080p Latino 1 link mega, Zapatos Rojos y los Siete Enanos (2019) REMUX 1080p Latino 1 link google drive, Zapatos Rojos y los Siete Enanos (2019) REMUX 1080p Latino hd 1080p latino.
Comentarios 0