Zapatos Rojos y los Siete Enanos (2019) PLACEBO 1080p Latino

336 vistas

Información de Zapatos Rojos y los Siete Enanos (2019) PLACEBO 1080p Latino

Datos de la película

  • Calidad: Full 1080p
  • Audio: Español Latino AC3 5.1 WEB-DL - Ingles DTS 5.1 BLURAY
  • Subtitulos: Español Latino SRT- FORZADOS SRT
  • Resolución: 1920x1080p
  • Formato: MKV
  • Codec: H.264
  • Encoder: Melkor
  • Mediainfo: Clic para Mostrar Datos Ver
  • Zapatos Rojos Y Los Siete Enanos (2019) PLACEBO 1080p Latino.mkv
    Format                      : Matroska
    Format version              : Version 4
    File size                   : 4.73 GiB
    Duration                    : 1 h 32 min
    Overall bit rate            : 7 367 kb/s
    Movie name                  : Red Shoes And The Seven Dwarfs (2019) CinemaniaHDD.Net
    Encoded date                : UTC 2022-01-11 02:09:51
    Writing application         : mkvmerge v56.1.0 ('My Friend') 64-bit
    Writing library             : libebml v1.4.2 + libmatroska v1.6.4
    Attachments                 : CINEMANIAHD.png

    Video
    ID                          : 1
    Format                      : AVC
    Format/Info                 : Advanced Video Codec
    Format profile              : High@L4.1
    Format settings             : CABAC / 4 Ref Frames
    Format settings, CABAC      : Yes
    Format settings, Reference  : 4 frames
    Codec ID                    : V_MPEG4/ISO/AVC
    Duration                    : 1 h 32 min
    Bit rate                    : 4 575 kb/s
    Width                       : 1 920 pixels
    Height                      : 1 080 pixels
    Display aspect ratio        : 16:9
    Frame rate mode             : Constant
    Frame rate                  : 23.976 (24000/1001) FPS
    Color space                 : YUV
    Chroma subsampling          : 4:2:0
    Bit depth                   : 8 bits
    Scan type                   : Progressive
    Bits/(Pixel*Frame)          : 0.092
    Stream size                 : 2.94 GiB (62%)
    Title                       : Full HD1080p [CinemaniaHDD]
    Writing library             : x264 core 163 r3059 b684ebe0
    Encoding settings           : cabac=1 / ref=4 / deblock=1:0:0 / analyse=0x3:0x133 / me=tesa / subme=11 / psy=1 / psy_rd=1.00:0.00 / mixed_ref=1 / me_range=24 / chroma_me=1 / trellis=2 / 8x8dct=1 / cqm=0 / deadzone=21,11 / fast_pskip=0 / chroma_qp_offset=-2 / threads=24 / lookahead_threads=6 / sliced_threads=0 / nr=0 / decimate=1 / interlaced=0 / bluray_compat=0 / constrained_intra=0 / bframes=16 / b_pyramid=2 / b_adapt=2 / b_bias=0 / direct=3 / weightb=1 / open_gop=0 / weightp=2 / keyint=240 / keyint_min=24 / scenecut=40 / intra_refresh=0 / rc_lookahead=60 / rc=crf / mbtree=1 / crf=19.0 / qcomp=0.60 / qpmin=0 / qpmax=69 / qpstep=4 / vbv_maxrate=62500 / vbv_bufsize=78125 / crf_max=0.0 / nal_hrd=none / filler=0 / ip_ratio=1.40 / aq=1:1.00
    Default                     : Yes
    Forced                      : Yes
    Color range                 : Limited
    Color primaries             : BT.709
    Transfer characteristics    : BT.709
    Matrix coefficients         : BT.709

    Audio #1
    ID                          : 2
    Format                      : AC-3
    Format/Info                 : Audio Coding 3
    Commercial name             : Dolby Digital
    Codec ID                    : A_AC3
    Duration                    : 1 h 32 min
    Bit rate mode               : Constant
    Bit rate                    : 640 kb/s
    Channel(s)                  : 6 channels
    Channel layout              : L R C LFE Ls Rs
    Sampling rate               : 48.0 kHz
    Frame rate                  : 31.250 FPS (1536 SPF)
    Compression mode            : Lossy
    Stream size                 : 421 MiB (9%)
    Title                       : Español Latino AC3 [CinemaniaHDD]
    Language                    : Spanish
    Service kind                : Complete Main
    Default                     : Yes
    Forced                      : Yes

    Audio #2
    ID                          : 3
    Format                      : DTS
    Format/Info                 : Digital Theater Systems
    Codec ID                    : A_DTS
    Duration                    : 1 h 32 min
    Bit rate mode               : Constant
    Bit rate                    : 1 509 kb/s
    Channel(s)                  : 6 channels
    Channel layout              : C L R Ls Rs LFE
    Sampling rate               : 48.0 kHz
    Frame rate                  : 93.750 FPS (512 SPF)
    Bit depth                   : 24 bits
    Compression mode            : Lossy
    Stream size                 : 993 MiB (20%)
    Title                       : Ingles [CinemaniaHDD]
    Language                    : English
    Default                     : No
    Forced                      : No

    Audio #3
    ID                          : 4
    Format                      : E-AC-3
    Format/Info                 : Enhanced AC-3
    Commercial name             : Dolby Digital Plus
    Codec ID                    : A_EAC3
    Duration                    : 1 h 32 min
    Bit rate mode               : Constant
    Bit rate                    : 640 kb/s
    Channel(s)                  : 6 channels
    Channel layout              : L R C LFE Ls Rs
    Sampling rate               : 48.0 kHz
    Frame rate                  : 31.250 FPS (1536 SPF)
    Compression mode            : Lossy
    Stream size                 : 421 MiB (9%)
    Title                       : Español Latino EAC3 [CinemaniaHDD]
    Language                    : Spanish
    Service kind                : Complete Main
    Default                     : No
    Forced                      : No

    Text #1
    ID                          : 5
    Format                      : UTF-8
    Codec ID                    : S_TEXT/UTF8
    Codec ID/Info               : UTF-8 Plain Text
    Duration                    : 34 min 41 s
    Bit rate                    : 1 b/s
    Count of elements           : 11
    Stream size                 : 335 Bytes (0%)
    Title                       : Forzados-SRT [CinemaniaHDD]
    Language                    : Spanish
    Default                     : Yes
    Forced                      : Yes

    Text #2
    ID                          : 6
    Format                      : UTF-8
    Codec ID                    : S_TEXT/UTF8
    Codec ID/Info               : UTF-8 Plain Text
    Duration                    : 1 h 30 min
    Bit rate                    : 48 b/s
    Count of elements           : 1049
    Stream size                 : 32.6 KiB (0%)
    Title                       : Español-SRT [CinemaniaHDD]
    Language                    : Spanish
    Default                     : No
    Forced                      : No

    Text #3
    ID                          : 7
    Format                      : UTF-8
    Codec ID                    : S_TEXT/UTF8
    Codec ID/Info               : UTF-8 Plain Text
    Duration                    : 1 h 26 min
    Bit rate                    : 52 b/s
    Count of elements           : 1145
    Stream size                 : 33.4 KiB (0%)
    Title                       : Ingles [CinemaniaHDD]
    Language                    : English
    Default                     : No
    Forced                      : No

    Menu
    00:00:00.000                : Chapter 01
    00:07:26.488                : Chapter 02
    00:14:31.662                : Chapter 03
    00:20:54.462                : Chapter 04
    00:27:22.099                : Chapter 05
    00:33:33.720                : Chapter 06
    00:43:23.976                : Chapter 07
    00:50:41.956                : Chapter 08
    00:56:27.509                : Chapter 09
    01:03:31.266                : Chapter 10
    01:12:52.702                : Chapter 11
    01:24:00.619                : Chapter 12

  • Peso: 4.73 GiB

Sinopsis

Descargar Zapatos Rojos y los Siete Enanos (2019) PLACEBO 1080p Latino. Unos enanos hechizados se encuentran a una chica con un poder misterioso: sus zapatos rojos. Deberán emprender una misión junto a ella para volver a ser humanos y salvar el reino.

Ficha técnica

Video trailer de la película

Enlaces de descarga

Rip de Bluray

Descargar Zapatos Rojos y los Siete Enanos (2019) PLACEBO 1080p Latino




Aportes de DPeliculasHDmega la pass es:dpeliculashdmega.org Aportes de CinemaniaHD la pass es:cinemaniahdd.com

Películas relacionadas

  • Eternals (2021) PLACEBO Full HD 1080p Latino

    Eternals (2021) PLACEBO Full HD 1080p Latino

    2021
    Eternals (2021) PLACEBO Full HD 1080p Latino

    2h 36m 2021

    Descargar Eternals (2021) PLACEBO Full HD 1080p Latino. Hace millones de años, los seres cósmicos conocidos...

    Director: Simon Warnock

    Género: Acción

    Actores: Zain Al Rafeea

  • Clifford, el gran perro rojo (2021) HD 1080p Latino

    Clifford, el gran perro rojo (2021) HD 1080p Latino

    2021
    Clifford, el gran perro rojo (2021) HD 1080p Latino

    1h 37m 2021

    Descargar Clifford, el gran perro rojo (2021) HD 1080p Latino. Cuando Emily Elizabeth conoce a un rescatador...

    Director: Walt Becker

    Género: Animación

    Actores: Yasha Jackson

  • Reunion (2020) PLACEBO Full HD 1080p Latino

    Reunion (2020) PLACEBO Full HD 1080p Latino

    2020
    Reunion (2020) PLACEBO Full HD 1080p Latino

    1h 35m 2020

    Descargar Reunion (2020) PLACEBO Full HD 1080p Latino. Una mujer embarazada regresa a la antigua casa...

    Director: Jake Mahaffy

    Género: FULL 1080p Plateadas

    Actores: Nancy Brunning

  • Verano del 85 (2020) HD 1080p Latino

    Verano del 85 (2020) HD 1080p Latino

    2020
    Verano del 85 (2020) HD 1080p Latino

    1h 41m 2020

    Descargar Verano del 85 (2020) HD 1080p Latino. ¿En qué sueñas cuándo tienes 16 y llegas a un resort...

    Director: Nicolas Tonnerre

    Género: Drama

    Actores: Yoann Zimmer

Zapatos Rojos y los Siete Enanos (2019) PLACEBO 1080p Latino pelicula full hd, Zapatos Rojos y los Siete Enanos (2019) PLACEBO 1080p Latino mega latino, Zapatos Rojos y los Siete Enanos (2019) PLACEBO 1080p Latino 4k latino, Zapatos Rojos y los Siete Enanos (2019) PLACEBO 1080p Latino pelicula completa, Zapatos Rojos y los Siete Enanos (2019) PLACEBO 1080p Latino descargar gratis, descargar Zapatos Rojos y los Siete Enanos (2019) PLACEBO 1080p Latino pelicula latino, Zapatos Rojos y los Siete Enanos (2019) PLACEBO 1080p Latino 1 link mega, Zapatos Rojos y los Siete Enanos (2019) PLACEBO 1080p Latino 1 link google drive, Zapatos Rojos y los Siete Enanos (2019) PLACEBO 1080p Latino hd 1080p latino.
Comentarios 0