Zack Snyder’s Justice League, Justice Is Gray (2021) HBOMAX WEB-DL 1080p Latino

139 vistas
1 estrella2 estrellas3 estrellas4 estrellas5 estrellas (3 votos, promedio: 5,00 de 5)
Cargando...

Información de Zack Snyder’s Justice League, Justice Is Gray (2021) HBOMAX WEB-DL 1080p Latino

Datos de la película

  • Calidad: WEBDL
  • Audio: Español Latino AC3 5.1 WEB-DL - Ingles AC3 5.1 WEB-DL
  • Subtitulos: Español Latino SRT- FORZADOS SRT
  • Resolución: 1920x1080
  • Formato: MKV
  • Codec: H.264
  • Encoder: cinemaniahdd
  • Mediainfo: Clic para Mostrar Datos Ver
  • Zack Snyder's Justice League, Justice Is Gray (2021) HBOMAX WEB-DL 1080p Latino [CNMNHDD].mkv
    Format                      : Matroska
    Format version              : Version 4
    File size                   : 16.9 GiB
    Duration                    : 4 h 2 min
    Overall bit rate mode       : Variable
    Overall bit rate            : 10.0 Mb/s
    Movie name                  : Zack Snyder's Justice League, Justice Is Gray (2021) - CinemaniaHDD.Net
    Encoded date                : UTC 2021-03-28 02:29:07
    Writing application         : mkvmerge v51.0.0 ('I Wish') 64-bit
    Writing library             : libebml v1.4.0 + libmatroska v1.6.2

    Video
    ID                          : 1
    Format                      : AVC
    Format/Info                 : Advanced Video Codec
    Format profile              : High@L4
    Format settings             : CABAC / 4 Ref Frames
    Format settings, CABAC      : Yes
    Format settings, Reference  : 4 frames
    Codec ID                    : V_MPEG4/ISO/AVC
    Duration                    : 4 h 2 min
    Bit rate mode               : Variable
    Bit rate                    : 8 223 kb/s
    Maximum bit rate            : 12.4 Mb/s
    Width                       : 1 920 pixels
    Height                      : 1 080 pixels
    Display aspect ratio        : 16:9
    Frame rate mode             : Constant
    Frame rate                  : 23.976 (24000/1001) FPS
    Color space                 : YUV
    Chroma subsampling          : 4:2:0
    Bit depth                   : 8 bits
    Scan type                   : Progressive
    Bits/(Pixel*Frame)          : 0.165
    Stream size                 : 13.9 GiB (82%)
    Title                       : CinemaniaHDD
    Default                     : Yes
    Forced                      : No
    Color range                 : Limited
    Color primaries             : BT.709
    Transfer characteristics    : BT.709
    Matrix coefficients         : BT.709

    Audio #1
    ID                          : 2
    Format                      : AC-3
    Format/Info                 : Audio Coding 3
    Commercial name             : Dolby Digital
    Codec ID                    : A_AC3
    Duration                    : 4 h 2 min
    Bit rate mode               : Constant
    Bit rate                    : 384 kb/s
    Channel(s)                  : 6 channels
    Channel layout              : L R C LFE Ls Rs
    Sampling rate               : 48.0 kHz
    Frame rate                  : 31.250 FPS (1536 SPF)
    Compression mode            : Lossy
    Stream size                 : 665 MiB (4%)
    Title                       : Español latino [CinemaniaHDD]
    Language                    : Spanish
    Service kind                : Complete Main
    Default                     : Yes
    Forced                      : No

    Audio #2
    ID                          : 3
    Format                      : E-AC-3 JOC
    Format/Info                 : Enhanced AC-3 with Joint Object Coding
    Commercial name             : Dolby Digital Plus with Dolby Atmos
    Codec ID                    : A_EAC3
    Duration                    : 4 h 2 min
    Bit rate mode               : Constant
    Bit rate                    : 768 kb/s
    Channel(s)                  : 6 channels
    Channel layout              : L R C LFE Ls Rs
    Sampling rate               : 48.0 kHz
    Frame rate                  : 31.250 FPS (1536 SPF)
    Compression mode            : Lossy
    Stream size                 : 1.30 GiB (8%)
    Title                       : Inglés - E-AC3 JOC [CinemaniaHDD]
    Language                    : English
    Service kind                : Complete Main
    Default                     : No
    Forced                      : No
    Complexity index            : 16
    Number of dynamic objects   : 15
    Bed channel count           : 1 channel
    Bed channel configuration   : LFE

    Audio #3
    ID                          : 4
    Format                      : AC-3
    Format/Info                 : Audio Coding 3
    Commercial name             : Dolby Digital
    Codec ID                    : A_AC3
    Duration                    : 4 h 2 min
    Bit rate mode               : Constant
    Bit rate                    : 640 kb/s
    Channel(s)                  : 6 channels
    Channel layout              : L R C LFE Ls Rs
    Sampling rate               : 48.0 kHz
    Frame rate                  : 31.250 FPS (1536 SPF)
    Compression mode            : Lossy
    Stream size                 : 1.08 GiB (6%)
    Title                       : Inglés - AC3 [CinemaniaHDD]
    Language                    : English
    Service kind                : Complete Main
    Default                     : No
    Forced                      : No

    Text #1
    ID                          : 5
    Format                      : UTF-8
    Codec ID                    : S_TEXT/UTF8
    Codec ID/Info               : UTF-8 Plain Text
    Duration                    : 3 h 50 min
    Bit rate                    : 1 b/s
    Count of elements           : 56
    Stream size                 : 1.77 KiB (0%)
    Title                       : Forzados [CinemaniaHDD]
    Language                    : Spanish
    Default                     : Yes
    Forced                      : Yes

    Text #2
    ID                          : 6
    Format                      : UTF-8
    Codec ID                    : S_TEXT/UTF8
    Codec ID/Info               : UTF-8 Plain Text
    Duration                    : 3 h 50 min
    Bit rate                    : 30 b/s
    Count of elements           : 1488
    Stream size                 : 51.4 KiB (0%)
    Title                       : Español latino [CinemaniaHDD]
    Language                    : Spanish
    Default                     : No
    Forced                      : No

    Text #3
    ID                          : 7
    Format                      : UTF-8
    Codec ID                    : S_TEXT/UTF8
    Codec ID/Info               : UTF-8 Plain Text
    Duration                    : 3 h 53 min
    Bit rate                    : 41 b/s
    Count of elements           : 2614
    Stream size                 : 70.4 KiB (0%)
    Title                       : Español latino [CC] [CinemaniaHDD]
    Language                    : Spanish
    Default                     : No
    Forced                      : No

    Text #4
    ID                          : 8
    Format                      : UTF-8
    Codec ID                    : S_TEXT/UTF8
    Codec ID/Info               : UTF-8 Plain Text
    Duration                    : 4 h 0 min
    Bit rate                    : 42 b/s
    Count of elements           : 2799
    Stream size                 : 74.0 KiB (0%)
    Title                       : Inglés [CC] [CinemaniaHDD]
    Language                    : English
    Default                     : No
    Forced                      : No

    Menu
    00:00:05.024                : :Inicio
    00:09:05.518                : :Parte 1: No cuentes con ello, Batman
    00:37:05.279                : :Parte 2: La era de los héroes
    01:08:46.345                : :Parte 3: Amada madre, amado hijo
    01:51:34.786                : :Parte 4: Máquina de cambio
    02:22:01.611                : :Parte 5: Ni todos los caballos del rey
    02:53:19.278                : :Parte 6: Algo más oscuro
    03:34:12.062                : :Epílogo: Dos veces padre
    03:53:29.009                : :Para Autumn
    04:01:40.000                : :End Credits

     

  • Peso: 16.9 GiB

Sinopsis

Con la determinación de asegurar que el sacrificio definitivo de Superman no fue en vano, Bruce Wayne une fuerzas con Diana Prince para reclutar a un equipo de metahumanos que protejan el mundo de una amenaza inminente de proporciones catastróficas. La tarea es más difícil de lo que Bruce imaginaba, ya que cada uno de los reclutas deberá enfrentarse a sus propios demonios para trascender aquello que los detenía, para unirse y formar de manera definitiva una liga de héroes sin precedentes. Ahora unidos, Batman, Wonder Woman, Aquaman, Cyborg y Flash deberán salvar al planeta de la amenaza de Steppenwolf, DeSaad y Darkseid, antes de que sea demasiado tarde.

Ficha técnica

Video trailer de la película

Enlaces de descarga

Rip de Bluray

Descargar Zack Snyder’s Justice League, Justice Is Gray (2021) HBOMAX WEB-DL 1080p Latino




Aportes de DPeliculasHDmega la pass es:dpeliculashdmega.org Aportes de CinemaniaHD la pass es:cinemaniahdd.com

Películas relacionadas

  • Nadie (2021) REMUX 1080p Latino

    Nadie (2021) REMUX 1080p Latino

    2021
    Nadie (2021) REMUX 1080p Latino

    5.0 1h 32m 2021

    Descargar Nadie (2021) REMUX 1080p Latino. Hutch Mansell, un padre de familia que aguanta con resignación...

    Director: Ilya Naishuller

    Género: Acción

    Actores: Yulia Guzhva

  • Locked Down (2021) HMAX WEB-DL 1080p Latino

    Locked Down (2021) HMAX WEB-DL 1080p Latino

    2021
    Locked Down (2021) HMAX WEB-DL 1080p Latino

    5.0 1h 58m 2021

    Linda y Paxton son una pareja con problemas pero que deciden pausar su separación con un objetivo: aprovecharse...

    Director: Sam Barry-Parker

    Género: Comedia

    Actores: Tallulah Greive

  • Godzilla vs Kong (2021) REMUX 4K HDR Latino – CMHDD

    Godzilla vs Kong (2021) REMUX 4K HDR Latino – CMHDD

    2021
    Godzilla vs Kong (2021) REMUX 4K HDR Latino – CMHDD

    5.0 1h 53m 2021

    Godzilla y Kong, dos de las fuerzas más poderosas de un planeta habitado por todo tipo de aterradoras...

    Director: Thomas Robinson Harper

    Género: Acción

    Actores: Victoria Liu

Zack Snyder’s Justice League, Justice Is Gray (2021) HBOMAX WEB-DL 1080p Latino pelicula full hd, Zack Snyder’s Justice League, Justice Is Gray (2021) HBOMAX WEB-DL 1080p Latino mega latino, Zack Snyder’s Justice League, Justice Is Gray (2021) HBOMAX WEB-DL 1080p Latino 4k latino, Zack Snyder’s Justice League, Justice Is Gray (2021) HBOMAX WEB-DL 1080p Latino pelicula completa, Zack Snyder’s Justice League, Justice Is Gray (2021) HBOMAX WEB-DL 1080p Latino descargar gratis, descargar Zack Snyder’s Justice League, Justice Is Gray (2021) HBOMAX WEB-DL 1080p Latino pelicula latino, Zack Snyder’s Justice League, Justice Is Gray (2021) HBOMAX WEB-DL 1080p Latino 1 link mega, Zack Snyder’s Justice League, Justice Is Gray (2021) HBOMAX WEB-DL 1080p Latino 1 link google drive, Zack Snyder’s Justice League, Justice Is Gray (2021) HBOMAX WEB-DL 1080p Latino hd 1080p latino.
Comentarios 2
  • Black711 - 28 marzo, 2021

    Saludos

    Hace una semana descargue la version HMAX que pesa 15.9 GB , es identico el formato 4:3 original
    Se puede disfrutar tambien en modo Zoom (estirar hacia todos los lados) manteniendo la resolucion de escala (ampliando simplemente la imagen)

    Esta version HBOMAX es lo mismo correcto? porque veo en el INFO que adjuntan Overall bit rate : 10.0 Mb/s, mientrfas en la HMAX decia Overall bit rate : 9 376 kb/s

    Muchas Gracias por subir todo el contenido disponible

    • CinemaniaHDD - 28 marzo, 2021

      Hola. si es la misma escala de imagen lo unico nuevo es que esta en blanco y negro version nueva lanzada dentro del mismo streaming.