×

¿Problemas para descargar con Mozilla, EDGE? Deshabilita la opción "Abrir vinculos en una pestaña nueva" tal como lo muestra ésta imagen.

La Liga de la Justicia de Zack Snyder (2021) REMUX 1080p Latino

406 vistas

Información de La Liga de la Justicia de Zack Snyder (2021) REMUX 1080p Latino

Datos de la película

  • Calidad: Full 1080p
  • Audio: Se especifica abajo de la Sinopsis
  • Subtitulos: Español Latino PGS - Ingles PGS
  • Resolución: 1920x1080p
  • Formato: MKV
  • Codec: H.264
  • Encoder: Melkor
  • Mediainfo: Clic para Mostrar Datos Ver
  • Liga De La Justicia De Zack Snyder (2021) REMUX 1080p Latino.mkv
    Format                      : Matroska
    Format version              : Version 4
    File size                   : 45.6 GiB
    Duration                    : 4 h 2 min
    Overall bit rate mode       : Variable
    Overall bit rate            : 27.0 Mb/s
    Movie name                  : Zack Snyder's Justice League (2021) CinemaniaHDD.Net
    Encoded date                : UTC 2021-05-18 07:02:33
    Writing application         : mkvmerge v56.1.0 ('My Friend') 64-bit
    Writing library             : libebml v1.4.2 + libmatroska v1.6.4
    Attachments                 : CINEMANIAHD.png

    Video
    ID                          : 1
    Format                      : AVC
    Format/Info                 : Advanced Video Codec
    Format profile              : High@L4.1
    Format settings             : CABAC / 2 Ref Frames
    Format settings, CABAC      : Yes
    Format settings, Reference  : 2 frames
    Codec ID                    : V_MPEG4/ISO/AVC
    Duration                    : 4 h 2 min
    Bit rate mode               : Variable
    Bit rate                    : 22.6 Mb/s
    Width                       : 1 920 pixels
    Height                      : 1 080 pixels
    Display aspect ratio        : 16:9
    Frame rate mode             : Constant
    Frame rate                  : 23.976 (24000/1001) FPS
    Color space                 : YUV
    Chroma subsampling          : 4:2:0
    Bit depth                   : 8 bits
    Scan type                   : Progressive
    Bits/(Pixel*Frame)          : 0.455
    Stream size                 : 38.3 GiB (84%)
    Title                       : REMUX HD1080p [CinemaniaHDD]
    Default                     : Yes
    Forced                      : No

    Audio #1
    ID                          : 2
    Format                      : AC-3
    Format/Info                 : Audio Coding 3
    Commercial name             : Dolby Digital
    Codec ID                    : A_AC3
    Duration                    : 4 h 2 min
    Bit rate mode               : Constant
    Bit rate                    : 640 kb/s
    Channel(s)                  : 6 channels
    Channel layout              : L R C LFE Ls Rs
    Sampling rate               : 48.0 kHz
    Frame rate                  : 31.250 FPS (1536 SPF)
    Compression mode            : Lossy
    Delay relative to video     : -18 ms
    Stream size                 : 1.08 GiB (2%)
    Title                       : Español Latino [CinemaniaHDD]
    Language                    : Spanish
    Service kind                : Complete Main
    Default                     : Yes
    Forced                      : No

    Audio #2
    ID                          : 3
    Format                      : MLP FBA 16-ch
    Format/Info                 : Meridian Lossless Packing FBA with 16-channel presentation
    Commercial name             : Dolby TrueHD with Dolby Atmos
    Codec ID                    : A_TRUEHD
    Duration                    : 4 h 2 min
    Bit rate mode               : Variable
    Bit rate                    : 3 157 kb/s
    Maximum bit rate            : 4 773 kb/s
    Channel(s)                  : 8 channels
    Channel layout              : L R C LFE Ls Rs Lb Rb
    Sampling rate               : 48.0 kHz
    Frame rate                  : 1 200.000 FPS (40 SPF)
    Compression mode            : Lossless
    Delay relative to video     : -18 ms
    Stream size                 : 5.34 GiB (12%)
    Title                       : Ingles THD [CinemaniaHDD]
    Language                    : English
    Default                     : No
    Forced                      : No
    Number of dynamic objects   : 11
    Bed channel count           : 1 channel
    Bed channel configuration   : LFE

    Audio #3
    ID                          : 4
    Format                      : AC-3
    Format/Info                 : Audio Coding 3
    Commercial name             : Dolby Digital
    Codec ID                    : A_AC3
    Duration                    : 4 h 2 min
    Bit rate mode               : Constant
    Bit rate                    : 448 kb/s
    Channel(s)                  : 6 channels
    Channel layout              : L R C LFE Ls Rs
    Sampling rate               : 48.0 kHz
    Frame rate                  : 31.250 FPS (1536 SPF)
    Compression mode            : Lossy
    Stream size                 : 776 MiB (2%)
    Title                       : Ingles AC3 [CinemaniaHDD]
    Language                    : English
    Service kind                : Complete Main
    Default                     : No
    Forced                      : No

    Text #1
    ID                          : 5
    Format                      : PGS
    Muxing mode                 : zlib
    Codec ID                    : S_HDMV/PGS
    Codec ID/Info               : Picture based subtitle format used on BDs/HD-DVDs
    Duration                    : 3 h 59 min
    Bit rate                    : 17.8 kb/s
    Count of elements           : 2980
    Stream size                 : 30.4 MiB (0%)
    Title                       : Español-PGS [CinemaniaHDD]
    Language                    : Spanish
    Default                     : No
    Forced                      : No

    Text #2
    ID                          : 6
    Format                      : PGS
    Muxing mode                 : zlib
    Codec ID                    : S_HDMV/PGS
    Codec ID/Info               : Picture based subtitle format used on BDs/HD-DVDs
    Duration                    : 4 h 0 min
    Bit rate                    : 25.8 kb/s
    Count of elements           : 5558
    Stream size                 : 44.3 MiB (0%)
    Title                       : Ingles-PGS [CinemaniaHDD]
    Language                    : English
    Default                     : No
    Forced                      : No

    Text #3
    ID                          : 7
    Format                      : UTF-8
    Codec ID                    : S_TEXT/UTF8
    Codec ID/Info               : UTF-8 Plain Text
    Duration                    : 3 h 31 min
    Bit rate                    : 0 b/s
    Count of elements           : 31
    Stream size                 : 897 Bytes (0%)
    Title                       : Forzados-SRT [CinemaniaHDD]
    Language                    : Spanish
    Default                     : Yes
    Forced                      : No

    Text #4
    ID                          : 8
    Format                      : UTF-8
    Codec ID                    : S_TEXT/UTF8
    Codec ID/Info               : UTF-8 Plain Text
    Duration                    : 3 h 51 min
    Bit rate                    : 30 b/s
    Count of elements           : 1488
    Stream size                 : 51.4 KiB (0%)
    Title                       : Español-SRT [CinemaniaHDD]
    Language                    : Spanish
    Default                     : No
    Forced                      : No

    Menu
    00:00:00.000                : Chapter 1
    00:08:54.909                : Part 1: "Don't Count On It, Batman"
    00:19:56.737                : Chapter 3
    00:36:54.504                : Part 2: The Age Of Heroes
    00:41:32.031                : Chapter 5
    00:50:18.640                : Chapter 6
    00:58:42.644                : Chapter 7
    01:08:35.570                : Part 3: Beloved Mother, Beloved Son
    01:20:27.823                : Chapter 9
    01:30:05.316                : Chapter 10
    01:40:28.605                : Chapter 11
    01:51:24.011                : Part 4: "Change Machine"
    01:59:06.931                : Chapter 13
    02:07:56.293                : Chapter 14
    02:21:58.509                : Part 5: All The King's Horses
    02:29:50.106                : Chapter 16
    02:37:27.271                : Chapter 17
    02:48:36.356                : Chapter 18
    02:53:19.514                : Part 6: "Something Darker"
    03:09:54.091                : Chapter 20
    03:21:28.951                : Chapter 21
    03:34:12.006                : Epilogue: A Father Twice Over
    03:40:10.030                : Chapter 23
    03:50:47.458                : Chapter 24
    03:53:27.035                : End Credits

  • Peso: 45.6 GiB

Sinopsis

Descargar La Liga de la Justicia de Zack Snyder (2021) REMUX 1080p Latino. Con la determinación de asegurar que el sacrificio definitivo de Superman no fue en vano, Bruce Wayne une fuerzas con Diana Prince para reclutar a un equipo de metahumanos que protejan el mundo de una amenaza inminente de proporciones catastróficas. La tarea es más difícil de lo que Bruce imaginaba, ya que cada uno de los reclutas deberá enfrentarse a sus propios demonios para trascender aquello que los detenía, para unirse y formar de manera definitiva una liga de héroes sin precedentes. Ahora unidos, Batman, Wonder Woman, Aquaman, Cyborg y Flash deberán salvar al planeta de la amenaza de Steppenwolf, DeSaad y Darkseid, antes de que sea demasiado tarde.

Español Latino AC3 5.1 – Ingles TrueHD 7.1 & AC3 5.1 Bluray

NOTA:
Proximamente para usuarios Free, Disponible Solo para VIP!! 🙂

Ficha técnica

Video trailer de la película

Enlaces de descarga

Rip de Bluray

Descargar La Liga de la Justicia de Zack Snyder (2021) REMUX 1080p Latino


Aportes de DPeliculasHDmega la pass es:dpeliculashdmega.org Aportes de CinemaniaHD la pass es:cinemaniahdd.com

Películas relacionadas

  • Wire Room (2022) HD 1080p Latino

    Wire Room (2022) HD 1080p Latino

    2022
    Wire Room (2022) HD 1080p Latino

    1h 37m 2022

    Descargar Wire Room (2022) HD 1080p Latino. Mientras está de servicio en la sala de cables, un agente...

    Director: Matt Eskandari

    Género: Acción

    Actores: Texas Battle

  • Wire Room (2022) PLACEBO Full HD 1080p Latino

    Wire Room (2022) PLACEBO Full HD 1080p Latino

    2022
    Wire Room (2022) PLACEBO Full HD 1080p Latino

    1h 37m 2022

    Descargar Wire Room (2022) PLACEBO Full HD 1080p Latino. Mientras está de servicio en la sala de cables,...

    Director: Matt Eskandari

    Género: Acción

    Actores: Texas Battle

  • Wire Room (2022) REMUX 1080p Latino

    Wire Room (2022) REMUX 1080p Latino

    2022
    Wire Room (2022) REMUX 1080p Latino

    1h 37m 2022

    Descargar Wire Room (2022) REMUX 1080p Latino. Mientras está de servicio en la sala de cables, un agente...

    Director: Matt Eskandari

    Género: Acción

    Actores: Texas Battle

  • Alarido (2022) REMUX 1080p Latino

    Alarido (2022) REMUX 1080p Latino

    2022
    Alarido (2022) REMUX 1080p Latino

    1h 29m 2022

    Descargar Alarido (2022) REMUX 1080p Latino. Una joven madre soltera es cautiva junto con sus dos hijos...

    Director: D.J. Caruso

    Género: Remux

    Actores: Vincent Gallo

  • El Cuartel Secreto (2022) WEB-DL 4K UHD HDR Latino

    El Cuartel Secreto (2022) WEB-DL 4K UHD HDR Latino

    2022
    El Cuartel Secreto (2022) WEB-DL 4K UHD HDR Latino

    1h 44m 2022

    Descargar El Cuartel Secreto (2022) WEB-DL 4K UHD HDR Latino. Mientras pasan el rato después de la escuela,...

    Director: Henry Joost

    Género: 4K HDR

    Actores: Zeb Slone

descargar La Liga de la Justicia de Zack Snyder (2021) REMUX 1080p Latino Full 1080p 1080p gratis, La Liga de la Justicia de Zack Snyder (2021) REMUX 1080p Latino Full 1080p mega 1 link, La Liga de la Justicia de Zack Snyder (2021) REMUX 1080p Latino Full 1080p pelicula completa, descargar La Liga de la Justicia de Zack Snyder (2021) REMUX 1080p Latino Full 1080p gratis en mega.

La Liga de la Justicia de Zack Snyder (2021) REMUX 1080p Latino pelicula full hd, La Liga de la Justicia de Zack Snyder (2021) REMUX 1080p Latino mega latino, La Liga de la Justicia de Zack Snyder (2021) REMUX 1080p Latino 4k latino, La Liga de la Justicia de Zack Snyder (2021) REMUX 1080p Latino pelicula completa, La Liga de la Justicia de Zack Snyder (2021) REMUX 1080p Latino descargar gratis, descargar La Liga de la Justicia de Zack Snyder (2021) REMUX 1080p Latino pelicula latino, La Liga de la Justicia de Zack Snyder (2021) REMUX 1080p Latino 1 link mega, La Liga de la Justicia de Zack Snyder (2021) REMUX 1080p Latino 1 link google drive, La Liga de la Justicia de Zack Snyder (2021) REMUX 1080p Latino hd 1080p latino.
Comentarios 0