×

¿Problemas para descargar con Mozilla, EDGE? Deshabilita la opción "Abrir vinculos en una pestaña nueva" tal como lo muestra ésta imagen.

Zack Snyder’s Justice League (2021) REMUX 4K HDR Latino – CMHDD

378 vistas

Información de Zack Snyder’s Justice League (2021) REMUX 4K HDR Latino – CMHDD

Datos de la película

  • Calidad: Full 1080p
  • Audio: Se especifica abajo de la Sinopsis
  • Subtitulos: Español Latino PGS
  • Resolución: 3840x2160p
  • Formato: MKV
  • Codec: H.264
  • Encoder: Dracarys
  • Mediainfo: Clic para Mostrar Datos Ver
  • Format                      : Matroska
    Format version              : Version 4
    Duration                    : 2 h 21 min
    Overall bit rate mode       : Variable
    Overall bit rate            : 55.5 Mb/s
    Movie name                  : Zack Snyder's Justice League (2021) REMUX 4K HDR Latino - CMHDD
    Encoded date                : UTC 2021-05-24 03:16:11
    Writing application         : mkvmerge v56.1.0 ('My Friend') 64-bit
    Writing library             : libebml v1.4.2 + libmatroska v1.6.4
    Cover                       : Yes
    Attachments                 : cover.jpg

    Video
    ID                          : 1
    ID in the original source m : 4113 (0x1011)
    Format                      : HEVC
    Format/Info                 : High Efficiency Video Coding
    Format profile              : Main 10@L5.1@High
    HDR format                  : SMPTE ST 2086, HDR10 compatible
    Codec ID                    : V_MPEGH/ISO/HEVC
    Duration                    : 2 h 21 min
    Bit rate                    : 51.4 Mb/s
    Width                       : 3 840 pixels
    Height                      : 2 160 pixels
    Display aspect ratio        : 16:9
    Frame rate mode             : Constant
    Frame rate                  : 23.976 (24000/1001) FPS
    Color space                 : YUV
    Chroma subsampling          : 4:2:0 (Type 2)
    Bit depth                   : 10 bits
    Bits/(Pixel*Frame)          : 0.258
    Stream size                 : 51.0 GiB (93%)
    Default                     : Yes
    Forced                      : No
    Color range                 : Limited
    Color primaries             : BT.2020
    Transfer characteristics    : PQ
    Matrix coefficients         : BT.2020 non-constant
    Mastering display color pri : Display P3
    Mastering display luminance : min: 0.0001 cd/m2, max: 1000 cd/m2
    Maximum Content Light Level : 597 cd/m2
    Maximum Frame-Average Light : 122 cd/m2
    Original source medium      : Blu-ray

    Audio #1
    ID                          : 2
    ID in the original source m : 4352 (0x1100)
    Format                      : MLP FBA 16-ch
    Format/Info                 : Meridian Lossless Packing FBA with 16-channel presentation
    Commercial name             : Dolby TrueHD with Dolby Atmos
    Codec ID                    : A_TRUEHD
    Duration                    : 2 h 21 min
    Bit rate mode               : Variable
    Bit rate                    : 3 156 kb/s
    Maximum bit rate            : 4 773 kb/s
    Channel(s)                  : 8 channels
    Channel layout              : L R C LFE Ls Rs Lb Rb
    Sampling rate               : 48.0 kHz
    Frame rate                  : 1 200.000 FPS (40 SPF)
    Compression mode            : Lossless
    Stream size                 : 3.13 GiB (6%)
    Language                    : English
    Default                     : No
    Forced                      : No
    Original source medium      : Blu-ray
    Number of dynamic objects   : 11
    Bed channel count           : 1 channel
    Bed channel configuration   : LFE

    Audio #2
    ID                          : 3
    ID in the original source m : 4352 (0x1100)
    Format                      : AC-3
    Format/Info                 : Audio Coding 3
    Commercial name             : Dolby Digital
    Codec ID                    : A_AC3
    Duration                    : 2 h 21 min
    Bit rate mode               : Constant
    Bit rate                    : 448 kb/s
    Channel(s)                  : 6 channels
    Channel layout              : L R C LFE Ls Rs
    Sampling rate               : 48.0 kHz
    Frame rate                  : 31.250 FPS (1536 SPF)
    Compression mode            : Lossy
    Stream size                 : 455 MiB (1%)
    Language                    : English
    Service kind                : Complete Main
    Default                     : No
    Forced                      : No
    Original source medium      : Blu-ray

    Audio #3
    ID                          : 4
    ID in the original source m : 4362 (0x110A)
    Format                      : AC-3
    Format/Info                 : Audio Coding 3
    Commercial name             : Dolby Digital
    Codec ID                    : A_AC3
    Duration                    : 2 h 21 min
    Bit rate mode               : Constant
    Bit rate                    : 448 kb/s
    Channel(s)                  : 6 channels
    Channel layout              : L R C LFE Ls Rs
    Sampling rate               : 48.0 kHz
    Frame rate                  : 31.250 FPS (1536 SPF)
    Compression mode            : Lossy
    Stream size                 : 455 MiB (1%)
    Language                    : Spanish
    Service kind                : Complete Main
    Default                     : Yes
    Forced                      : No
    Original source medium      : Blu-ray

    Text #1
    ID                          : 5
    ID in the original source m : 4778 (0x12AA)
    Format                      : PGS
    Muxing mode                 : zlib
    Codec ID                    : S_HDMV/PGS
    Codec ID/Info               : Picture based subtitle format used on BDs/HD-DVDs
    Duration                    : 2 h 19 min
    Bit rate                    : 19.5 kb/s
    Count of elements           : 1796
    Stream size                 : 19.5 MiB (0%)
    Language                    : Spanish
    Default                     : No
    Forced                      : No
    Original source medium      : Blu-ray

    Text #2
    ID                          : 6
    ID in the original source m : 4792 (0x12B8)
    Format                      : PGS
    Muxing mode                 : zlib
    Codec ID                    : S_HDMV/PGS
    Codec ID/Info               : Picture based subtitle format used on BDs/HD-DVDs
    Duration                    : 59 min 46 s
    Bit rate                    : 205 b/s
    Count of elements           : 10
    Stream size                 : 89.9 KiB (0%)
    Language                    : Spanish
    Default                     : No
    Forced                      : No
    Original source medium      : Blu-ray

    Menu
    00:00:00.000                : Chapter 01
    00:08:55.034                : Chapter 02
    00:19:56.737                : Chapter 03
    00:36:54.712                : Chapter 04
    00:41:32.031                : Chapter 05
    00:50:18.640                : Chapter 06
    00:58:42.644                : Chapter 07
    01:08:35.694                : Chapter 08
    01:20:27.823                : Chapter 09
    01:30:05.316                : Chapter 10
    01:40:28.605                : Chapter 11
    01:51:24.177                : Chapter 12
    01:59:06.931                : Chapter 13
    02:07:56.293                : Chapter 14

  • Peso: 93,2 GB

Sinopsis

Con la determinación de asegurar que el sacrificio definitivo de Superman no fue en vano, Bruce Wayne une fuerzas con Diana Prince para reclutar a un equipo de metahumanos que protejan el mundo de una amenaza inminente de proporciones catastróficas. La tarea es más difícil de lo que Bruce imaginaba, ya que cada uno de los reclutas deberá enfrentarse a sus propios demonios para trascender aquello que los detenía, para unirse y formar de manera definitiva una liga de héroes sin precedentes. Ahora unidos, Batman, Wonder Woman, Aquaman, Cyborg y Flash deberán salvar al planeta de la amenaza de Steppenwolf, DeSaad y Darkseid, antes de que sea demasiado tarde.

 

Latino: AC3 5.1  –  Ingles: TrueHD 7.1  +  AC3 5.1

 

Ficha técnica

Video trailer de la película

Enlaces de descarga

Rip de Bluray

Descargar Zack Snyder’s Justice League (2021) REMUX 4K HDR Latino – CMHDD


Aportes de DPeliculasHDmega la pass es:dpeliculashdmega.org Aportes de CinemaniaHD la pass es:cinemaniahdd.com

Películas relacionadas

  • El Lobo Y El Leon (2021) HD 1080p Latino

    El Lobo Y El Leon (2021) HD 1080p Latino

    2021
    El Lobo Y El Leon (2021) HD 1080p Latino

    1h 39m 2021

    Descargar El Lobo Y El Leon (2021) HD 1080p Latino. A la muerte de su abuelo, Alma, un joven pianista...

    Director: Gilles de Maistre

    Género: Aventura

    Actores: Victor Cornfoot

  • El Lobo Y El Leon (2021) PLACEBO Full HD 1080p Latino

    El Lobo Y El Leon (2021) PLACEBO Full HD 1080p Latino

    2021
    El Lobo Y El Leon (2021) PLACEBO Full HD 1080p Latino

    1h 39m 2021

    Descargar El Lobo Y El Leon (2021) PLACEBO Full HD 1080p Latino. A la muerte de su abuelo, Alma, un joven...

    Director: Gilles de Maistre

    Género: Aventura

    Actores: Victor Cornfoot

  • El Lobo Y El Leon (2021) REMUX 1080p Latino

    El Lobo Y El Leon (2021) REMUX 1080p Latino

    2021
    El Lobo Y El Leon (2021) REMUX 1080p Latino

    1h 39m 2021

    Descargar El Lobo Y El Leon (2021) REMUX 1080p Latino. A la muerte de su abuelo, Alma, un joven pianista...

    Director: Gilles de Maistre

    Género: Aventura

    Actores: Victor Cornfoot

  • La Mujer Rey (2022) WEB-DL 1080p Latino

    La Mujer Rey (2022) WEB-DL 1080p Latino

    2022
    La Mujer Rey (2022) WEB-DL 1080p Latino

    2h 15m 2022

    Descargar La Mujer Rey (2022) WEB-DL 1080p Latino. Una epopeya histórica inspirada en los hechos reales...

    Director: Gina Prince-Bythewood

    Género: Acción

    Actores: Wanda Banda

  • Black Adam (2022) WEB-DL 4K UHD HDR Latino

    Black Adam (2022) WEB-DL 4K UHD HDR Latino

    2022
    Black Adam (2022) WEB-DL 4K UHD HDR Latino

    2h 4m 2022

    Descargar Black Adam (2022) WEB-DL 4K UHD HDR Latino. Casi 5.000 años después de haber sido dotado...

    Director: Jaume Collet-Serra

    Género: 4K HDR

    Actores: Yssa Mei Panganiban

descargar Zack Snyder’s Justice League (2021) REMUX 4K HDR Latino – CMHDD Full 1080p 1080p gratis, Zack Snyder’s Justice League (2021) REMUX 4K HDR Latino – CMHDD Full 1080p mega 1 link, Zack Snyder’s Justice League (2021) REMUX 4K HDR Latino – CMHDD Full 1080p pelicula completa, descargar Zack Snyder’s Justice League (2021) REMUX 4K HDR Latino – CMHDD Full 1080p gratis en mega.

Zack Snyder’s Justice League (2021) REMUX 4K HDR Latino – CMHDD pelicula full hd, Zack Snyder’s Justice League (2021) REMUX 4K HDR Latino – CMHDD mega latino, Zack Snyder’s Justice League (2021) REMUX 4K HDR Latino – CMHDD 4k latino, Zack Snyder’s Justice League (2021) REMUX 4K HDR Latino – CMHDD pelicula completa, Zack Snyder’s Justice League (2021) REMUX 4K HDR Latino – CMHDD descargar gratis, descargar Zack Snyder’s Justice League (2021) REMUX 4K HDR Latino – CMHDD pelicula latino, Zack Snyder’s Justice League (2021) REMUX 4K HDR Latino – CMHDD 1 link mega, Zack Snyder’s Justice League (2021) REMUX 4K HDR Latino – CMHDD 1 link google drive, Zack Snyder’s Justice League (2021) REMUX 4K HDR Latino – CMHDD hd 1080p latino.
Comentarios 0